<?xml version="1.0" standalone="no"?>
<!DOCTYPE svg PUBLIC "-//W3C//DTD SVG 1.1//EN" "http://www.w3.org/Graphics/SVG/1.1/DTD/svg11.dtd" >
<svg xmlns="http://www.w3.org/2000/svg">
<defs>
  <font id="coconala-icons" horiz-adv-x="513">
    <font-face font-family="coconala-icons"
      units-per-em="514" ascent="514"
      descent="0" />
    <missing-glyph horiz-adv-x="0" />
    <glyph glyph-name="align-center"
      unicode="&#xEA01;"
      horiz-adv-x="512" d="M123.849 439H389.163C392.834 439 396.356 440.4545 398.951 443.0431C401.5470000000001 445.6317 403.003 449.1422 403 452.8016V498.2098C403 501.8672 401.542 505.3748 398.947 507.96095C396.352 510.54711 392.832 511.99999527596 389.163 511.99999527596H123.849C120.177 512.00302204 116.654 510.55147 114.057 507.96499C111.459 505.3785 110 501.8692 110 498.2098V452.8016C110 445.1792 116.2 439 123.849 439zM18.2857 366H493.714C503.813 366 512 357.829 512 347.75V311.25C512 301.171 503.813 293 493.714 293H18.2857C8.18679 293 0 301.171 0 311.25V347.75C0 357.829 8.18679 366 18.2857 366zM18.2857 73H493.714C503.813 73 512 64.829 512 54.75V18.25C512 8.171 503.813 0 493.714 0H18.2857C8.18679 0 0 8.171 0 18.25V54.75C0 64.829 8.18679 73 18.2857 73zM398.951 150.043C396.356 147.454 392.834 146 389.163 146H123.849C120.176 146 116.653 147.454 114.056 150.042C111.459 152.631 110 156.141 110 159.802V205.21C110 208.869 111.459 212.379 114.057 214.965C116.654 217.551 120.177 219.003 123.849 219H389.163C396.805 219 403 212.826 403 205.21V159.802C403.003 156.142 401.5470000000001 152.632 398.951 150.043z" />
    <glyph glyph-name="archive"
      unicode="&#xEA02;"
      horiz-adv-x="512" d="M408.486 316.573L256.118 186.848L103.749 316.573H209.669V512H302.566V316.573H408.486zM459 440.7659H332.568V387.766H459V151.499H53V387.766H179.667V440.7659H53C23.729 440.7659 0 417.0379 0 387.766V53C0 23.729 23.729 0 53 0H459C488.271 0 512 23.729 512 53V387.766C512 417.0379 488.271 440.7659 459 440.7659zM459 53H53V98.499H459V53z" />
    <glyph glyph-name="arrow-back"
      unicode="&#xEA03;"
      horiz-adv-x="512" d="M256 0L301.12 45.12L122.56 224L512 224V288L122.56 288L301.44 466.56L256 512L0 256L256 0z" />
    <glyph glyph-name="arrow-down"
      unicode="&#xEA04;"
      horiz-adv-x="512" d="M512 256L466.88 301.12L288 122.56V512H224V122.56L45.44 301.44L0 256L256 0L512 256z" />
    <glyph glyph-name="arrow-forward"
      unicode="&#xEA05;"
      horiz-adv-x="512" d="M256 512L210.88 466.88L389.44 288H0L0 224H389.44L210.56 45.44L256 0L512 256L256 512z" />
    <glyph glyph-name="arrow-up"
      unicode="&#xEA06;"
      horiz-adv-x="512" d="M0 256L45.12 210.88L224 389.44L224 0L288 0L288 389.44L466.56 210.56L512 256L256 512L0 256z" />
    <glyph glyph-name="background-setting"
      unicode="&#xEA07;"
      horiz-adv-x="512" d="M0 461V51H512V461H0zM256.179 256.1190000000001C247.201 256.1190000000001 238.921 258.35 231.34 262.813C223.758 267.275 217.723 273.274 213.234 280.81C208.745 288.346 206.501 296.576 206.501 305.501C206.501 314.425 208.745 322.754 213.234 330.4890000000001C217.723 338.223 223.758 344.3210000000001 231.34 348.783C238.921 353.246 247.201 355.477 256.179 355.477C265.157 355.477 273.437 353.246 281.018 348.783C288.6 344.3210000000001 294.635 338.223 299.124 330.4890000000001C303.613 322.754 305.858 314.425 305.858 305.501C305.858 296.576 303.613 288.346 299.124 280.81C294.635 273.274 288.6 267.275 281.018 262.813C273.437 258.35 265.157 256.1190000000001 256.179 256.1190000000001zM256.179 248.477C267.529 248.477 279.977 246.476 293.524 242.473C308.901 237.804 321.349 231.579 330.8690000000001 223.797C342.219 214.681 347.893 204.454 347.893 193.114V156.762H164.465V193.114C164.465 204.454 170.14 214.681 181.49 223.797C191.009 231.579 203.457 237.804 218.834 242.473C232.381 246.476 244.829 248.477 256.179 248.477z" />
    <glyph glyph-name="bars"
      unicode="&#xEA08;"
      horiz-adv-x="512" d="M512 410.355C512 425.0707 499.402 437 483.86 437H28.1403L27.6749 436.9964C12.3481 436.7611 0 424.9235 0 410.355C0 395.64 12.5988 383.7100000000001 28.1403 383.7100000000001H483.86L484.326 383.714C499.653 383.949 512 395.7870000000001 512 410.355zM483.86 284.445C499.402 284.445 512 272.516 512 257.8C512 243.2320000000001 499.653 231.394 484.326 231.159L483.86 231.155H28.1403C12.5988 231.155 0 243.084 0 257.8C0 272.368 12.3481 284.206 27.6749 284.4410000000001L28.1403 284.445H483.86zM483.86 128.755C499.402 128.755 512 116.826 512 102.11C512 87.542 499.653 75.704 484.326 75.469L483.86 75.465H28.1403C12.5988 75.465 0 87.395 0 102.11C0 116.679 12.3481 128.516 27.6749 128.752L28.1403 128.755H483.86z" />
    <glyph glyph-name="bell-o"
      unicode="&#xEA09;"
      horiz-adv-x="512" d="M198.652 56.698C198.992 -17.732 312.212 -17.672 312.522 56.698H198.652zM475.312 113.588C461.612 138.018 452.662 159.588 441.502 184.708C396.042 293.278 408.502 436.3677 298.502 464.6177C301.332 495.7577 278.502 511.217685 255.802 510.99768C233.222 511.077685 210.582 495.6177 213.402 464.6177C103.402 436.3677 115.812 293.278 70.4015 184.708C59.2415 159.578 50.2915 138.018 36.5915 113.588C22.8415 88.968 36.3615 85.148 56.4215 85.148H455.482C475.542 85.148 489.062 88.968 475.312 113.588zM263.002 127.808H91.6315C124.012 190.288 135.542 260.188 155.722 328.808C176.782 412.5177 205.072 426.3177 255.902 425.2877H256.152C306.822 426.2877 335.032 412.3477000000001 356.052 328.778C376.2320000000001 260.188 387.762 190.288 420.142 127.778L263.002 127.808z" />
    <glyph glyph-name="blocks"
      unicode="&#xEA0A;"
      horiz-adv-x="512" d="M227.556 512H0V284.444H227.556V512zM512 512H284.444V284.444H512V512zM0 227.556H227.556V0H0V227.556zM512 227.556H284.444V0H512V227.556z" />
    <glyph glyph-name="blog-announce"
      unicode="&#xEA0B;"
      horiz-adv-x="512" d="M479.217 511.50852C493.427 517.25852 510.217 505.57852 509.797 490.2485V23.619C510.067 11.449 499.237 0.689 487.117 0.949C479.267 -0.471 103.547 143.409 95.7369 144.859L31.0669 129.059C17.3069 125.298 2.63686 136.809 3.00686 151.059V362.819C3.00794 366.253 3.78979 369.6430000000001 5.29329 372.731C6.7968 375.819 8.98262 378.525 11.6856 380.644C14.3885 382.7630000000001 17.5378 384.24 20.8954 384.963C24.2531 385.687 27.7312 385.637 31.0669 384.819L95.7369 369.019L479.217 511.50852zM464.447 56.239V457.6585L416.767 439.9485V219.219C416.767 214.407 414.856 209.794 411.454 206.392C408.052 202.99 403.438 201.079 398.627 201.079C393.816 201.079 389.202 202.99 385.8 206.392C382.398 209.794 380.487 214.407 380.487 219.219V426.4485L117.487 328.7390000000001V185.109L380.487 87.389V149.389C380.487 154.2 382.398 158.814 385.8 162.215C389.202 165.617 393.816 167.529 398.627 167.529C403.438 167.529 408.052 165.617 411.454 162.215C414.856 158.814 416.767 154.2 416.767 149.389V73.949L464.447 56.239zM48.3569 333.949V179.949L81.2469 187.949V325.949L48.3569 333.949z" />
    <glyph glyph-name="blog-article"
      unicode="&#xEA0C;"
      horiz-adv-x="512" d="M468.84 510H133.42C128.038 510.00132 122.708 508.94136 117.736 506.88077C112.764 504.82018 108.247 501.7994 104.443 497.9913C100.64 494.1832 97.6246 489.6624 95.5701 484.6878C93.5156 479.7131 92.4621 474.3822 92.47 469V133.63C92.4687 128.252 93.527 122.926 95.5845 117.958C97.6419 112.989 100.658 108.474 104.461 104.671C108.264 100.868 112.779 97.852 117.748 95.794C122.716 93.737 128.042 92.679 133.42 92.68H468.84C479.705 92.68 490.126 96.993 497.814 104.671C505.501 112.349 509.827 122.765 509.84 133.63V469C509.84 479.8739 505.52 490.3024 497.831 497.9914C490.142 505.68037 479.714 510 468.84 510zM416.19 378.37H186.07C182.702 378.303 179.354 378.909 176.223 380.151C173.092 381.394 170.24 383.249 167.835 385.607C165.429 387.9650000000001 163.518 390.78 162.213 393.886C160.909 396.991 160.237 400.326 160.237 403.695C160.237 407.064 160.909 410.399 162.213 413.5045C163.518 416.6104000000001 165.429 419.4248 167.835 421.7831C170.24 424.1413 173.092 425.9961 176.223 427.2387C179.354 428.4814 182.702 429.0869 186.07 429.02H416.19C422.819 428.8883 429.133 426.1622 433.775 421.4272C438.417 416.6922 441.017 410.326 441.017 403.695C441.017 397.064 438.417 390.698 433.775 385.963C429.133 381.228 422.819 378.502 416.19 378.37zM441.51 301.37C441.515 298.041 440.864 294.7440000000001 439.594 291.6670000000001C438.324 288.5900000000001 436.46 285.793 434.109 283.437C431.757 281.0800000000001 428.964 279.211 425.89 277.935C422.815 276.659 419.519 276.001 416.19 276H186.07C179.352 276 172.909 278.669 168.159 283.419C163.409 288.169 160.74 294.612 160.74 301.3300000000001C160.74 308.048 163.409 314.491 168.159 319.241C172.909 323.991 179.352 326.66 186.07 326.66H416.19C422.904 326.6570000000001 429.343 323.9890000000001 434.091 319.241C438.839 314.493 441.507 308.054 441.51 301.3400000000001V301.37zM186.07 173.66C182.702 173.593 179.354 174.199 176.223 175.441C173.092 176.684 170.24 178.539 167.835 180.897C165.429 183.255 163.518 186.07 162.213 189.176C160.909 192.281 160.237 195.616 160.237 198.985C160.237 202.354 160.909 205.689 162.213 208.794C163.518 211.9 165.429 214.715 167.835 217.073C170.24 219.431 173.092 221.286 176.223 222.529C179.354 223.771 182.702 224.377 186.07 224.31H340.3C343.668 224.377 347.016 223.771 350.147 222.529C353.278 221.286 356.13 219.431 358.5350000000001 217.073C360.941 214.715 362.852 211.9 364.157 208.794C365.461 205.689 366.133 202.354 366.133 198.985C366.133 195.616 365.461 192.281 364.157 189.176C362.852 186.07 360.941 183.255 358.5350000000001 180.897C356.13 178.539 353.278 176.684 350.147 175.441C347.016 174.199 343.668 173.593 340.3 173.66H186.07zM80 2.93H396.61C402.815 3.057 408.723 5.612 413.067 10.046C417.4100000000001 14.479 419.843 20.438 419.843 26.645C419.843 32.852 417.4100000000001 38.811 413.067 43.245C408.723 47.678 402.815 50.233 396.61 50.36H80C72.1494 50.376 64.6257 53.506 59.0801 59.063C53.5345 64.619 50.42 72.149 50.42 80V396.54C50.42 402.828 47.922 408.859 43.4755 413.3055C39.029 417.752 32.9983 420.25 26.71 420.25C20.4217 420.25 14.391 417.752 9.9445 413.3055C5.49801 408.859 3 402.828 3 396.54V80C3.01322 59.576 11.1277 39.991 25.5631 25.543C39.9986 11.094 59.576 2.962 80 2.93z" />
    <glyph glyph-name="blog-content"
      unicode="&#xEA0D;"
      horiz-adv-x="512" d="M467.839 509H132.417C109.801 509 91.4678 490.666 91.4678 468.05V132.629C91.4678 110.013 109.802 91.678 132.418 91.678H467.838C490.454 91.678 508.789 110.013 508.789 132.629V468.05C508.789 490.666 490.455 509 467.839 509zM234.595 192.629V408.049L382.313 300.334L234.595 192.629zM79.0249 1.936H395.61C408.707 1.936 419.3210000000001 12.551 419.3210000000001 25.647C419.3210000000001 38.745 408.707 49.359 395.61 49.359H79.0249C62.7049 49.359 49.4229 62.641 49.4229 78.961V395.546C49.4229 408.6430000000001 38.8079 419.2566 25.7119 419.2566C12.6139 419.2566 1.99991 408.6430000000001 1.99991 395.546V78.961C1.99991 36.484 36.5579 1.936 79.0249 1.936z" />
    <glyph glyph-name="blog-main"
      unicode="&#xEA0E;"
      horiz-adv-x="512" d="M214.11 188.31H98.28C92.6357 188.189 87.2636 185.861 83.3148 181.826C79.366 177.792 77.1546 172.371 77.1546 166.725C77.1546 161.079 79.366 155.658 83.3148 151.624C87.2636 147.589 92.6357 145.262 98.28 145.14H214.11C216.984 145.078 219.841 145.591 222.514 146.648C225.187 147.705 227.622 149.285 229.676 151.295C231.73 153.306 233.362 155.706 234.476 158.356C235.591 161.005 236.165 163.851 236.165 166.725C236.165 169.599 235.591 172.445 234.476 175.094C233.362 177.744 231.73 180.144 229.676 182.155C227.622 184.165 225.187 185.745 222.514 186.802C219.841 187.859 216.984 188.372 214.11 188.31zM270.01 188.31C265.734 188.31 261.554 187.042 257.999 184.666C254.443 182.291 251.672 178.914 250.036 174.964C248.399 171.013 247.971 166.666 248.805 162.472C249.64 158.278 251.699 154.426 254.722 151.402C257.746 148.379 261.598 146.32 265.792 145.485C269.986 144.651 274.3330000000001 145.079 278.284 146.716C282.234 148.352 285.611 151.123 287.986 154.679C290.362 158.234 291.63 162.414 291.63 166.69C291.634 169.533 291.077 172.348 289.992 174.975C288.907 177.602 287.314 179.99 285.305 182.001C283.296 184.012 280.9100000000001 185.606 278.284 186.694C275.657 187.782 272.843 188.341 270 188.34L270.01 188.31zM326.5 188.31C322.224 188.31 318.044 187.042 314.489 184.666C310.933 182.291 308.162 178.914 306.526 174.964C304.889 171.013 304.461 166.666 305.295 162.472C306.13 158.278 308.189 154.426 311.212 151.402C314.236 148.379 318.088 146.32 322.282 145.485C326.476 144.651 330.823 145.079 334.774 146.716C338.724 148.352 342.101 151.123 344.476 154.679C346.852 158.234 348.12 162.414 348.12 166.69C348.124 169.532 347.568 172.346 346.483 174.973C345.398 177.599 343.806 179.986 341.798 181.997C339.79 184.008 337.406 185.603 334.781 186.691C332.156 187.78 329.342 188.34 326.5 188.34V188.31zM487.5 269.8300000000001H424.83V483.41C424.83 489.136 422.555 494.6275 418.506 498.6764C414.4580000000001 502.72535 408.966 505 403.24 505H21.59C15.864 505 10.3725 502.72535 6.32356 498.6764C2.27465 494.6275 0 489.136 0 483.41L0 73.86C0.0238117 56.098 7.09037 39.07 19.6501 26.51C32.2099 13.95 49.2378 6.884 67 6.86H447C464.241 6.934 480.752 13.825 492.93 26.029C505.108 38.233 511.963 54.759 512 72V245.27C511.992 251.782 509.404 258.026 504.803 262.635C500.202 267.2440000000001 493.962 269.841 487.45 269.86L487.5 269.8300000000001zM67 50C60.6796 50.013 54.6219 52.531 50.1536 57.001C45.6854 61.471 43.1706 67.53 43.16 73.85V461.85H381.6600000000001V245.9100000000001C381.6600000000001 245.79 381.6600000000001 245.6600000000001 381.6600000000001 245.54V72C381.656 64.501 382.949 57.058 385.48 50H67zM468.86 72C468.86 66.159 466.54 60.556 462.409 56.426C458.279 52.295 452.676 49.975 446.835 49.975C440.9940000000001 49.975 435.391 52.295 431.261 56.426C427.13 60.556 424.81 66.159 424.81 72V151.8C424.81 152 424.81 152.2 424.81 152.4V226.69H468.81L468.86 72zM326.54 387.9H98.28C92.6357 387.779 87.2636 385.451 83.3148 381.416C79.366 377.382 77.1546 371.961 77.1546 366.315C77.1546 360.669 79.366 355.248 83.3148 351.214C87.2636 347.179 92.6357 344.851 98.28 344.73H326.54C332.1840000000001 344.851 337.556 347.179 341.505 351.214C345.454 355.248 347.665 360.669 347.665 366.315C347.665 371.961 345.454 377.382 341.505 381.416C337.556 385.451 332.1840000000001 387.779 326.54 387.9zM326.54 288.1H98.28C92.6357 287.9790000000001 87.2636 285.651 83.3148 281.616C79.366 277.582 77.1546 272.161 77.1546 266.515C77.1546 260.8690000000001 79.366 255.448 83.3148 251.414C87.2636 247.379 92.6357 245.051 98.28 244.93H326.54C332.1840000000001 245.051 337.556 247.379 341.505 251.414C345.454 255.448 347.665 260.8690000000001 347.665 266.515C347.665 272.161 345.454 277.582 341.505 281.616C337.556 285.651 332.1840000000001 287.9790000000001 326.54 288.1z" />
    <glyph glyph-name="bold"
      unicode="&#xEA0F;"
      horiz-adv-x="512" d="M136.29 1.92C99.46 1.92 81.04 1.28 55 0C59.45 26.85 60.72 45.38 60.72 86.29V433.38C60.72 462.78 58.81 485.79 55.64 512C75.03 511.07 85.7 510.82 106.64 510.75H285.49C384 510.72 439.2200000000001 466 439.2200000000001 386.08C439.2200000000001 347.0800000000001 427.79 318.32 403.65 295.95C389.65 282.53 378.25 276.77 353.48 269.1C385.87 262.1 400.48 255.68 417.63 239.7C443.63 215.41 457 183.45 457 141.9C457 52.41 397.94 1.9 292.52 1.9L136.29 1.92zM273.08 311C319.51 311 347 335.52 347 376.2C347 395.3400000000001 340.89 411.46 331.12 420.46C317.67 432.42 296.9 439 272.46 439H146V311H273.08zM280 73C335.07 73 366 102.51 366 156.84C366 183.67 359.81 201.78 346.2 215.2C330.77 229.95 307.23 238 278.77 238H147V73H280z" />
    <glyph glyph-name="bookmark-o"
      unicode="&#xEA10;"
      horiz-adv-x="512" d="M398.3330000000001 512H113.889C82.6 512 57.2845 486.4 57.2845 455.1111L57 0L256.111 85.333L455.222 0V455.1111C455.222 486.4 429.622 512 398.3330000000001 512zM398.3330000000001 85.333L256.111 147.342L113.889 85.333V455.1111H398.3330000000001V85.333z" />
    <glyph glyph-name="bookmark"
      unicode="&#xEA11;"
      horiz-adv-x="512" d="M398.3330000000001 512H113.889C82.6 512 57.2845 486.4 57.2845 455.1111L57 0L256.111 85.333L455.222 0V455.1111C455.222 486.4 429.622 512 398.3330000000001 512z" />
    <glyph glyph-name="bullhorn"
      unicode="&#xEA12;"
      horiz-adv-x="512" d="M85.5 128L256 512L512 256L128 85.272V0L0 128H85.5z" />
    <glyph glyph-name="calendar"
      unicode="&#xEA13;"
      horiz-adv-x="512" d="M384.4 230.4H256.4V102.4H384.4V230.4zM358.8 512V460.8H154V512H102.8V460.8H77.2C48.784 460.8 26.256 437.76 26.256 409.6L26 51.2C26 23.04 48.784 0 77.2 0H435.6C463.76 0 486.8 23.04 486.8 51.2V409.6C486.8 437.76 463.76 460.8 435.6 460.8H410V512H358.8zM435.6 51.2H77.2V332.8H435.6V51.2z" />
    <glyph glyph-name="calender"
      unicode="&#xEA14;"
      horiz-adv-x="512" d="M360.27 438.86V480.65C360.1960000000001 484.8134 360.952 488.9499 362.4940000000001 492.818C364.0350000000001 496.6861 366.332 500.2083 369.25 503.17889C372.168 506.1495 375.649 508.50903 379.489 510.1197C383.329 511.73038 387.451 512.559937 391.615 512.559937C395.779 512.559937 399.902 511.73038 403.742 510.1197C407.582 508.50903 411.062 506.1495 413.98 503.17889C416.898 500.2083 419.195 496.6861 420.737 492.818C422.279 488.9499 423.0350000000001 484.8134 422.96 480.65V438.86C423.0350000000001 434.6967 422.279 430.5602 420.737 426.6921C419.195 422.824 416.898 419.3018 413.98 416.3312C411.062 413.3606 407.582 411.001 403.742 409.39C399.902 407.78 395.779 406.95 391.615 406.95C387.451 406.95 383.329 407.78 379.489 409.39C375.649 411.001 372.168 413.3606 369.25 416.3312C366.332 419.3018 364.0350000000001 422.824 362.4940000000001 426.6921C360.952 430.5602 360.1960000000001 434.6967 360.27 438.86zM119.94 407.51C124.06 407.501 128.141 408.305 131.948 409.878C135.756 411.45 139.216 413.7587 142.129 416.6717C145.042 419.5846 147.35 423.0443 148.923 426.852C150.495 430.6597 151.299 434.7405 151.29 438.86V480.65C151.29 488.9646 147.987 496.9386 142.108 502.8178C136.229 508.69711 128.255 512.000048 119.94 512.000048C111.626 512.000048 103.652 508.69711 97.7725 502.8178C91.8932 496.9386 88.5903 488.9646 88.5903 480.65V438.86C88.6008 430.5488000000001 91.9072 422.5809 97.7841 416.7039C103.661 410.827 111.629 407.521 119.94 407.51zM506.55 376V62.9C506.55 28.17 478.55 0.02 444.04 0.02H67.5103C59.2782 0.042 51.1311 1.686 43.5343 4.857C35.9374 8.028 29.0397 12.665 23.235 18.502C17.4303 24.34 12.8322 31.263 9.7035 38.877C6.57476 46.492 4.97659 54.648 5.00026 62.88V376C4.98843 384.2440000000001 6.60065 392.409 9.74484 400.03C12.889 407.651 17.5036 414.5778 23.325 420.415C29.1465 426.2523 36.0607 430.8856 43.673 434.0504C51.2852 437.2152 59.4463 438.8495000000001 67.6903 438.86V407.45C67.7323 401.926 69.9496 396.64 73.8618 392.7390000000001C77.7739 388.838 83.0657 386.636 88.5903 386.61H151.29C154.032 386.6 156.749 387.131 159.285 388.174C161.821 389.217 164.126 390.751 166.068 392.687C168.009 394.624 169.548 396.925 170.597 399.459C171.646 401.992 172.184 404.708 172.18 407.45V438.86H339.37V407.45C339.412 401.927 341.628 396.6430000000001 345.538 392.743C349.448 388.842 354.737 386.639 360.26 386.61H423C425.743 386.6 428.46 387.131 430.997 388.174C433.533 389.217 435.839 390.75 437.781 392.687C439.723 394.623 441.263 396.924 442.314 399.458C443.364 401.991 443.903 404.707 443.9 407.45L444 438.86C452.236 438.8443 460.388 437.2054 467.99 434.0370000000001C475.592 430.8686 482.495 426.2329 488.304 420.3949C494.114 414.5569 498.715 407.631 501.846 400.0130000000001C504.977 392.396 506.575 384.236 506.55 376zM130.39 94H67.6903V52.2H130.39V94zM130.39 177.59H67.6903V135.8H130.39V177.59zM130.39 261.18H67.6903V219.39H130.39V261.18zM130.39 344.78H67.6903V303H130.39V344.78zM234.88 94H172.18V52.2H234.88V94zM234.88 177.59H172.18V135.8H234.88V177.59zM234.88 261.18H172.18V219.39H234.88V261.18zM234.88 344.78H172.18V303H234.88V344.78zM339.37 94H276.67V52.2H339.37V94zM339.37 177.59H276.67V135.8H339.37V177.59zM339.37 261.18H276.67V219.39H339.37V261.18zM339.37 344.78H276.67V303H339.37V344.78zM443.86 94H381.1600000000001V52.2H443.86V94zM443.86 177.59H381.1600000000001V135.8H443.86V177.59zM443.86 261.18H381.1600000000001V219.39H443.86V261.18zM443.86 344.78H381.1600000000001V303H443.86V344.78z" />
    <glyph glyph-name="camera-add-outline"
      unicode="&#xEA15;"
      horiz-adv-x="512" d="M44.5217 22C32.2783 22 21.7971 26.355 13.0783 35.065C4.35942 43.775 0 54.245 0 66.476V333.333C0 345.564 4.35942 356.035 13.0783 364.745C21.7971 373.4550000000001 32.2783 377.81 44.5217 377.81H114.643L142.47 407.831C146.551 412.2786 151.467 415.7996 157.217 418.394C162.968 420.9885 168.997 422.2857 175.304 422.2857H267.13C273.438 422.2857 278.725 420.1546 282.991 415.8923C287.258 411.63 289.391 406.348 289.391 400.048C289.391 393.747 287.258 388.4650000000001 282.991 384.203C278.725 379.9410000000001 273.438 377.81 267.13 377.81H175.304L134.678 333.333H44.5217V66.476H400.6960000000001V244.381C400.6960000000001 250.682 402.829 255.963 407.096 260.226C411.362 264.488 416.649 266.6190000000001 422.957 266.6190000000001C429.264 266.6190000000001 434.551 264.488 438.817 260.226C443.084 255.963 445.217 250.682 445.217 244.381V66.476C445.217 54.245 440.858 43.775 432.139 35.065C423.42 26.355 412.939 22 400.6960000000001 22H44.5217zM400.6960000000001 377.81H356.174C349.867 377.81 344.58 379.9410000000001 340.313 384.203C336.046 388.4650000000001 333.913 393.747 333.913 400.048C333.913 406.348 336.046 411.63 340.313 415.8923C344.58 420.1546 349.867 422.2857 356.174 422.2857H400.6960000000001V466.7619C400.6960000000001 473.0627 402.829 478.3442 407.096 482.6065C411.362 486.8688 416.649 489 422.957 489C429.264 489 434.551 486.8688 438.817 482.6065C443.084 478.3442 445.217 473.0627 445.217 466.7619V422.2857H489.739C496.046 422.2857 501.333 420.1546 505.6 415.8923C509.867 411.63 512 406.348 512 400.048C512 393.747 509.867 388.4650000000001 505.6 384.203C501.333 379.9410000000001 496.046 377.81 489.739 377.81H445.217V333.333C445.217 327.033 443.084 321.751 438.817 317.4890000000001C434.551 313.226 429.264 311.0950000000001 422.957 311.0950000000001C416.649 311.0950000000001 411.362 313.226 407.096 317.4890000000001C402.829 321.751 400.6960000000001 327.033 400.6960000000001 333.333V377.81zM227.061 108.729C254.887 108.729 278.539 118.458 298.017 137.916C317.496 157.374 327.235 181.002 327.235 208.8C327.235 236.598 317.496 260.226 298.017 279.684C278.539 299.142 254.887 308.871 227.061 308.871C199.235 308.871 175.583 299.142 156.104 279.684C136.626 260.226 126.887 236.598 126.887 208.8C126.887 181.002 136.626 157.374 156.104 137.916C175.583 118.458 199.235 108.729 227.061 108.729zM227.061 153.205C211.478 153.205 198.307 158.579 187.548 169.327C176.788 180.076 171.409 193.233 171.409 208.8C171.409 224.367 176.788 237.524 187.548 248.273C198.307 259.021 211.478 264.395 227.061 264.395C242.644 264.395 255.815 259.021 266.574 248.273C277.3330000000001 237.524 282.713 224.367 282.713 208.8C282.713 193.233 277.3330000000001 180.076 266.574 169.327C255.815 158.579 242.644 153.205 227.061 153.205z" />
    <glyph glyph-name="camera-plus"
      unicode="&#xEA16;"
      horiz-adv-x="512" d="M351 236.17C357.411 225.855 360.831 213.963 360.879 201.818C360.927 189.674 357.6 177.755 351.27 167.39C344.82 156.871 335.702 148.245 324.84 142.39C313.834 136.262 301.437 133.067 288.84 133.11C276.528 133.075 264.414 136.209 253.663 142.208C242.912 148.208 233.885 156.873 227.45 167.37C221.095 177.662 217.764 189.534 217.84 201.63C217.804 213.881 221.128 225.907 227.45 236.4C233.673 247.04 242.606 255.84 253.34 261.9C264.228 268.027 276.52 271.224 289.013 271.18C301.506 271.136 313.775 267.853 324.62 261.65C335.412 255.505 344.484 246.742 351 236.17zM66.74 308.94H111.58V373.3300000000001H178.32V416.61H111.58V481H66.74V416.61H0V373.3300000000001H66.74V308.94zM512 330.06V72.48C512 60.8 507.55 50.84 498.65 42.6C490.169 34.521 478.862 30.084 467.15 30.24H111.58C99.8687 30.088 88.5628 34.524 80.08 42.6C71.1933 50.867 66.7467 60.827 66.74 72.48V287.82H133.47V352.2100000000001H200.21V416.61H355.57L396.15 373.3300000000001H467.15C472.994 373.392 478.792 372.285 484.201 370.073C489.611 367.861 494.524 364.589 498.65 360.45C507.55 351.87 512 341.74 512 330.06zM400.42 201.91C400.533 220.894 395.3570000000001 239.534 385.4700000000001 255.74C375.611 272.123 361.616 285.625 344.89 294.89C327.818 304.355 308.62 309.3210000000001 289.1 309.3210000000001C269.58 309.3210000000001 250.382 304.355 233.31 294.89C216.625 285.664 202.709 272.148 193 255.74C183.249 239.393 178.171 220.684 178.32 201.65C178.148 182.695 183.229 164.063 193 147.82C202.665 131.616 216.472 118.279 233 109.18C250.065 99.69 269.305 94.803 288.83 95C308.424 94.827 327.7320000000001 99.707 344.89 109.17C361.638 118.289 375.648 131.715 385.4700000000001 148.06C395.358 164.273 400.5350000000001 182.92 400.42 201.91z" />
    <glyph glyph-name="campaign"
      unicode="&#xEA17;"
      horiz-adv-x="512" d="M409.6 256.011C409.6 241.931 421.12 230.411 435.2 230.411H486.4C500.48 230.411 512 241.931 512 256.011C512 270.091 500.48 281.611 486.4 281.611H435.2C421.12 281.611 409.6 270.091 409.6 256.011zM373.504 132.619C365.056 121.355 367.36 105.739 378.624 97.547C392.192 87.563 406.528 76.811 420.096 66.571C431.36 58.123 447.2320000000001 60.427 455.424 71.691C455.424 71.947 455.68 71.947 455.68 72.203C464.128 83.467 461.824 99.339 450.56 107.531C436.992 117.771 422.656 128.523 409.344 138.507C398.08 146.955 382.2080000000001 144.395 373.76 133.131C373.76 132.875 373.504 132.619 373.504 132.619zM455.936 440.0752C455.936 440.3312 455.68 440.3312 455.68 440.5872C447.2320000000001 451.8512 431.36 454.1552 420.352 445.7071C406.784 435.4671 392.192 424.7152 378.88 414.4752C367.616 406.027 365.568 390.155 374.016 379.147C374.016 378.891 374.272 378.891 374.272 378.635C382.7200000000001 367.371 398.336 365.067 409.6 373.515C423.168 383.499 437.504 394.507 451.072 404.747C462.08 412.9392000000001 464.128 428.8112 455.936 440.0752zM153.6 332.8110000000001H51.2C23.04 332.8110000000001 0 309.771 0 281.611V230.411C0 202.251 23.04 179.211 51.2 179.211H76.8V102.411C76.8 88.331 88.32 76.811 102.4 76.811C116.48 76.811 128 88.331 128 102.411V179.211H153.6L281.6 102.411V409.611L153.6 332.8110000000001zM345.6 256.011C345.6 290.059 330.752 320.779 307.2 341.771V170.507C330.752 191.243 345.6 221.963 345.6 256.011z" />
    <glyph glyph-name="caret-down"
      unicode="&#xEA18;"
      horiz-adv-x="512" d="M256 73L512 439H0L256 73z" />
    <glyph glyph-name="caret-up"
      unicode="&#xEA19;"
      horiz-adv-x="512" d="M256 439L512 73H0L256 439z" />
    <glyph glyph-name="cart"
      unicode="&#xEA1A;"
      horiz-adv-x="512" d="M168.328 153.6L162.027 198.512H479.041C493.179 198.512 504.641 209.973 504.641 224.112V399.36C504.641 413.4986 493.179 424.9602 479.041 424.9602H129.678L120.383 490.0204C118.582 502.6322 107.78 512 95.0406 512H33.6C19.4615 512 8 500.5385 8 486.4C8 472.2615 19.4615 460.8 33.6 460.8H72.9375L120.898 124.38C122.7 111.768 133.501 102.4 146.241 102.4H468.8C482.938 102.4 494.4 113.862 494.4 128C494.4 142.138 482.938 153.6 468.8 153.6M453.441 373.76V249.712H154.869L138.137 373.76H453.441zM172.226 0C189.168 0 202.903 13.735 202.903 30.678C202.903 47.62 189.168 61.355 172.226 61.355C155.283 61.355 141.548 47.62 141.548 30.678C141.548 13.735 155.283 0 172.226 0zM386.969 0C403.912 0 417.646 13.735 417.646 30.678C417.646 47.62 403.912 61.355 386.969 61.355C370.026 61.355 356.291 47.62 356.291 30.678C356.291 13.735 370.026 0 386.969 0z" />
    <glyph glyph-name="category-ai"
      unicode="&#xEA1B;"
      horiz-adv-x="512" d="M297.658 51.93L411.904 117.892C419.498 110.921 429.626 106.667 440.747 106.667C464.311 106.667 483.413 125.769 483.413 149.333C483.413 168.438 470.857 184.61 453.547 190.047V321.953C470.857 327.39 483.413 343.562 483.413 362.6670000000001C483.413 386.231 464.311 405.333 440.747 405.333C429.626 405.333 419.498 401.079 411.904 394.108L297.658 460.0697C298.319 463.0523 298.667 466.1521 298.667 469.3333C298.667 492.8975 279.564 512 256 512C232.436 512 213.333 492.8975 213.333 469.3333C213.333 466.1521 213.681 463.0523 214.342 460.0697L100.096 394.108C92.5016 401.079 82.3744 405.333 71.2533 405.333C47.6892 405.333 28.5867 386.231 28.5867 362.6670000000001C28.5867 343.562 41.143 327.39 58.4533 321.953V190.047C41.143 184.61 28.5867 168.438 28.5867 149.333C28.5867 125.769 47.6892 106.667 71.2533 106.667C82.3744 106.667 92.5016 110.921 100.096 117.892L214.342 51.93C213.681 48.948 213.333 45.848 213.333 42.667C213.333 19.103 232.436 0 256 0C279.564 0 298.667 19.103 298.667 42.667C298.667 45.848 298.319 48.948 297.658 51.93zM269.013 428.6876C274.978 430.5956 280.372 433.7802 284.873 437.9199L395.046 374.222L296.326 371.521C291.9460000000001 384.1620000000001 281.789 394.106 269.013 398.192V428.6876zM400.323 348.978C401.998 344.029 404.557 339.488 407.811 335.541L352.826 251.021C349.169 252.041 345.315 252.587 341.3330000000001 252.587C338.154 252.587 335.056 252.239 332.075 251.579L287.513 328.7820000000001C291.962 333.653 295.296 339.559 297.113 346.096L400.323 348.978zM243.413 398.326C230.424 394.322 220.082 384.283 215.661 371.482L116.947 374.218L227.127 437.9199C231.735 433.6817 237.279 430.4447 243.413 428.5536V398.326zM111.6 348.752L214.948 345.881C216.777 339.429 220.087 333.6 224.487 328.7820000000001L179.925 251.579C176.944 252.239 173.846 252.587 170.667 252.587C165.05 252.587 159.686 251.501 154.774 249.529L103.365 334.572C106.961 338.679 109.782 343.482 111.6 348.752zM84.0533 190.047V316.861L134.748 232.957C130.477 226.313 128 218.406 128 209.92C128 207.286 128.239 204.708 128.695 202.206L98.3153 182.321C94.148 185.744 89.3208 188.392 84.0533 190.047zM112.345 160.861L140.755 179.494C148.455 171.924 159.015 167.253 170.667 167.253C171.297 167.253 171.923 167.267 172.546 167.294L222.435 76.964L112.927 140.142C113.577 143.102 113.92 146.178 113.92 149.333C113.92 153.328 113.371 157.194 112.345 160.861zM265.085 84.364C262.157 84.999 259.118 85.333 256 85.333C253.097 85.333 250.263 85.043 247.523 84.491L196.854 176.233C203.617 181.497 208.752 188.753 211.38 197.12H300.62C303.465 188.061 309.251 180.304 316.858 174.967L265.085 84.364zM290.723 77.632L341.937 167.258C353.313 167.415 363.613 172.025 371.173 179.423L400.552 163.68C398.952 159.197 398.08 154.367 398.08 149.333C398.08 146.178 398.423 143.102 399.073 140.142L290.723 77.632zM383.2440000000001 201.884C383.74 204.486 384 207.173 384 209.92C384 220.117 380.423 229.479 374.455 236.818L427.947 319.17V190.047C423.702 188.714 419.7440000000001 186.735 416.186 184.226L383.2440000000001 201.884zM256 314.88C259.221 314.88 262.358 315.237 265.374 315.913L309.891 238.761C305.716 234.213 302.516 228.755 300.62 222.72H211.38C209.484 228.755 206.284 234.213 202.109 238.761L246.626 315.913C249.642 315.237 252.779 314.88 256 314.88z" />
    <glyph glyph-name="category-beauty"
      unicode="&#xEA1C;"
      horiz-adv-x="512" d="M500.099 272.5080000000001V223.622C506.896 218.497 511 210.421 511 201.809V40.126C511 19.118 493.996 2 473.1 2H396.9C375.978 2 359 19.118 359 40.126V201.809C359 210.421 363.104 218.497 369.874 223.622V272.5080000000001C369.874 281.094 374.005 289.1960000000001 380.775 294.294V447.5515000000001C380.775 468.7478 397.913 486 418.968 486C430.616 486 441.49 480.7143 448.766 471.5651L480.909 431.1043C486.266 424.3698 489.225 415.8912000000001 489.225 407.279V294.294C495.995 289.1960000000001 500.099 281.094 500.099 272.5080000000001zM413 300H457V407.8930000000001C457 409.184 456.573 410.476 455.773 411.444L423.593 452.035C420.364 456.0699 413 453.4338 413 448.2691V300zM467 229V268H401V229H467zM396.681 36H473.292C476.454 36 479 38.547 479 41.684V198H391V41.684C391 38.547 393.519 36 396.681 36zM343.727 0.054L347.287 0L344.664 2.332C343.379 3.913 338.855 20.049 340.166 34.362L340.3 35.809H45.3148C42.7716 35.809 40.5497 38.034 40.5497 40.58C40.5497 42.189 40.3623 43.77 39.934 45.298H337.355L336.981 48.219C336.713 50.015 336.472 51.704 336.472 53.473V116.836L334.437 115.577C303.491 96.359 268.153 86.2 232.227 86.2C124.69 86.2 37.1766 173.794 37.1766 281.463C37.1766 389.16 124.69 476.7802 232.227 476.7802C277.282 476.7802 319.74 461.4754 355.051 432.5277L357.246 430.7319V440.1399C357.246 449.6819 360.03 459.1167 365.304 467.4258L366 468.498L364.956 469.2217C325.71 497.2045 279.799 512 232.227 512C105.281 512 2 408.592 2 281.463C2 198.453 46.5463 122.143 118.613 81.054H19.8828C10.0044 81.054 2 73.039 2 63.176V40.58C2 36.104 3.65978 31.816 6.65809 28.492C11.8784 11.713 27.7266 0.054 45.3148 0.054H343.727zM202.325 240C197.871 240 193.443 241.68 190.082 245.067C183.306 251.842 183.306 262.803 190.082 269.578L243.431 322.919C250.18 329.694 261.17 329.694 267.918 322.919C274.694 316.145 274.694 305.183 267.918 298.409L214.569 245.067C211.208 241.68 206.78 240 202.325 240zM229.324 186C224.869 186 220.442 187.68 217.081 191.067C210.306 197.841 210.306 208.802 217.081 215.576L310.4340000000001 308.919C317.182 315.694 328.171 315.694 334.919 308.919C341.694 302.145 341.694 291.184 334.919 284.41L241.566 191.067C238.205 187.68 233.778 186 229.324 186z" />
    <glyph glyph-name="category-business"
      unicode="&#xEA1D;"
      horiz-adv-x="512" d="M369.1 39.5C369.1 37.8 367.6 36.3 365.9000000000001 36.3H39.5C37.8 36.3 36.3 37.8 36.3 39.5V472.5C36.3 474.2 37.8 475.7 39.5 475.7H365.9C367.6 475.7 369.1 474.2 369.1 472.5V355L405.4 391.3V472.5C405.4 494.3 387.7 512 365.9 512H39.5C17.7 512 0 494.3 0 472.5V39.4C0 17.7 17.7 0 39.5 0H365.9C387.7 0 405.4 17.7 405.4 39.5V163.4L369.1 127.1V39.5zM507.7 346.2L474.2 379.7C468.7 385.2 459.7 385.2 454.1 379.7L428.1 353.7L481.6 300.2L507.6 326.2C513.3 331.7 513.3 340.7 507.7 346.2zM266.2 191.6L266 191.8L256 128L319.8 138L467.8 286.1L414.3 339.6zM309.3 365.9C309.3 375.9 301.2 384 291.2 384H114.1C104.1 384 96 375.9 96 365.9C96 355.9 104.1 347.8 114.1 347.8H291.2C301.2 347.7 309.3 355.8 309.3 365.9zM245.3 256C245.3 266 237.2 274.1 227.2 274.1H114.1C104.1 274.1 96 266 96 256S104.1 237.9 114.1 237.9H227.2C237.2 237.9 245.3 246 245.3 256zM114.1 164.3C104.1 164.3 96 156.2 96 146.2C96 136.2 104.1 128.1 114.1 128.1H184.5C194.5 128.1 202.6 136.2 202.6 146.2C202.6 156.2 194.5 164.3 184.5 164.3H114.1z" />
    <glyph glyph-name="category-career"
      unicode="&#xEA1E;"
      horiz-adv-x="512" d="M60.2653 18.133C60.2653 8.119 52.147 0 42.1326 0C32.1183 0 24 8.119 24 18.133V493.8667C24 503.88143 32.1183 512 42.1326 512C52.147 512 60.2653 503.88143 60.2653 493.8667V18.133zM105.063 486.4V281.6C105.063 267.462 116.525 256 130.662 256H461.401C475.539 256 487 267.462 487 281.6C487 287.411 485.023 293.049 481.394 297.588L425.064 368.035C417.588 377.384 417.589 390.666 425.067 400.014L481.377 470.4083C490.209 481.4488 488.419 497.5587 477.379 506.39063C472.84 510.02176 467.2 512 461.388 512H130.662C116.525 512 105.063 500.5385 105.063 486.4zM434.779 473.626L375.896 400.025C368.403 390.674 368.399 377.375 375.887 368.02L434.779 294.4H169.061C154.923 294.4 143.462 305.862 143.462 320V448.026C143.462 462.1645 154.923 473.626 169.061 473.626H434.779z" />
    <glyph glyph-name="category-consultant"
      unicode="&#xEA1F;"
      horiz-adv-x="512" d="M12.8 501C5.7344 501 0 495.1071 0 487.8462V172.154C0 164.893 5.7344 159 12.8 159H28.5611C34.1163 166.392 40.2859 173.469 47.8123 179.704C45.1499 183.624 42.7947 187.675 40.7467 191.885H32V468.1154H480V191.885H392.236L370.381 159H499.2C506.266 159 512 164.893 512 172.154V487.8462C512 495.1071 506.266 501 499.2 501H12.8zM240.265 191.885H305.163L283.308 159H253.039C247.458 166.419 241.314 173.469 233.762 179.73C236.027 183.029 237.725 186.58 239.424 190.133L239.428 190.141C239.706 190.722 239.984 191.304 240.265 191.885zM181.996 299.831C170.992 305.036 158.841 308.2100000000001 146.025 308.871L180.344 343.789C185.668 349.206 194.079 350.141 200.468 346.025L291.348 287.477L403.944 415.5575C409.776 422.1909 419.894 422.8528 426.544 417.0358C433.194 411.219 433.8570000000001 401.126 428.026 394.492L306.314 256.0420000000001C301.078 250.086 292.257 248.8570000000001 285.585 253.155L194.067 312.1140000000001L181.996 299.831zM191.866 156.335L198.289 153.717C236.408 126.607 247.896 84.126 255.859 27.417C256.459 23.089 255.128 18.683 252.151 15.313C249.201 11.944 244.945 10 240.507 10C232.987 10 226.512 15.624 225.494 23.063C216.539 86.226 201.866 134.175 139.387 134.641C75.1329 134.175 60.4596 86.252 51.5304 23.089C50.486 15.624 44.011 10 36.5177 10C32.0531 10 27.7973 11.944 24.8209 15.313C21.8967 18.683 20.5391 23.089 21.1396 27.417C29.1028 84.178 40.5907 126.607 78.7098 153.717L85.1587 156.335L80.6418 161.622C68.4229 175.903 61.9739 193.061 61.9739 211.282C61.9739 253.58 96.3333 288 138.525 288C144.426 288 150.431 287.3 156.358 285.978C182.362 280.0950000000001 204.085 259.697 211.656 234.064C219.228 208.275 213.667 181.864 196.357 161.622L191.866 156.335zM139 165.026H138.948C164.777 165.546 185 186.135 185 210.961C185 236.359 164.384 257 139 257C113.642 257 93 236.359 93 210.961C93 186.135 113.223 165.546 138.031 165L139 165.026zM289.453 76.656L396.4820000000001 236.766C401.072 243.633 399.212 252.911 392.326 257.4890000000001C385.44 262.067 376.137 260.211 371.5470000000001 253.344L264.518 93.234C259.928 86.367 261.788 77.089 268.674 72.511C275.56 67.933 284.863 69.789 289.453 76.656z" />
    <glyph glyph-name="category-consulting"
      unicode="&#xEA20;"
      horiz-adv-x="512" d="M256 273.5C254 273.5 251.9 273.6 249.9 273.7C123.9 271.2 36.2 191.3 36.2 77.7V18.2C36.2 8.2 28.1 0.1 18.1 0.1C8.1 0 0 8.1 0 18.1V77.6C0 187.8 72.5 273.4 180.4 300.6C153.8000000000001 322.5 136.8000000000001 355.7 136.8000000000001 392.7C136.7 458.5 190.3 512 256 512S375.3 458.5 375.3 392.7C375.3 355.7 358.3 322.5 331.7 300.6C439.5 273.4 512 187.9 512 77.7V18.2C512 8.2 503.9 0.1 493.9 0.1S475.8 8.2 475.8 18.2V77.7C475.8 191.3 388.2 271.2 262.1 273.7C260.1 273.5 258 273.5 256 273.5zM173 392.7C173 347 210.3 309.7 256 309.7S339 347 339 392.7S301.7 475.7 256 475.7S173 438.4 173 392.7zM307.2 235.3L278.6 182.2H278.4L316.4 44.2C316.8 42.5 316.2 40.6 314.7 39.5L258.2 0.7C256.7 -0.4 254.8 -0.4 253.3 0.7L196.8 39.5C195.1 40.6 194.7 42.5 195.1 44.2L233.1 182.2L204.5 235.3C203 238.1 205.1 241.5 208.3 241.5H303.4C306.8 241.5 308.7 238.1 307.2 235.3z" />
    <glyph glyph-name="category-design"
      unicode="&#xEA21;"
      horiz-adv-x="512" d="M33.3913 51H83V82H33.3913V118H83V149H33.3913V185H83V216H33.3913V252H83V283H33.3913V318H83V349H33.3913V385H83V416H33.3913V478.6087H107V429H138V478.6087H174V429H205V478.6087H240V429H271V478.6087H307V429H338V478.6087H374V429H405V478.6087H441V429H472V478.6087H512C512 497.063 497.041 512 478.609 512H33.3913C14.9593 512 0 497.063 0 478.6087V33.391C0 14.937 14.9593 0 33.3913 0V51zM358.185 353.8210000000001C375.393 380.728 411.991 380.728 429.205 353.8110000000001L465.402 297.169C472.762 285.752 476.329 271.5130000000001 475.976 257.394L471.291 43.647C470.893 25.486 456.052 10.978 437.895 11L349.115 11.109C330.9340000000001 11.131 316.118 25.713 315.798 43.9L312.024 258.294C311.67 272.476 315.205 286.617 322.503 298.027L358.185 353.8210000000001zM385.811 335.213L350.228 279.4650000000001C348.825 277.267 347.681 274.7390000000001 346.824 272H439.847C439.028 274.378 437.987 276.575 436.7440000000001 278.507L400.578 335.213C396.504 341.596 389.885 341.596 385.811 335.213zM441.58 239H412V44.031L437.314 44L441.58 239zM379 44.072V239H345.358L348.782 44.109L379 44.072zM199.833 211H222.167C253.003 211 278 186.127 278 155.444V44.333C278 25.924 263.002 11 244.5 11H177.5C158.998 11 144 25.924 144 44.333V155.444C144 186.127 168.997 211 199.833 211zM200.333 178C187.999 178 178 168.001 178 155.667V144H245V155.667C245 168.001 235.001 178 222.667 178H200.333zM245 111H178V44H245V111z" />
    <glyph glyph-name="category-fortune"
      unicode="&#xEA22;"
      horiz-adv-x="512" d="M512 417C469.75 417 435.5 374.4700000000001 435.5 322C435.5 374.4700000000001 401.25 417 359 417C401.25 417 435.5 459.53 435.5 512C435.5 459.53 469.75 417 512 417zM135.8 252.42C135.832 274.903 144.781 296.4550000000001 160.685 312.348C176.588 328.24 198.147 337.174 220.63 337.19C225.7 337.305 230.524 339.4 234.069 343.027C237.614 346.653 239.599 351.523 239.599 356.5950000000001C239.599 361.6670000000001 237.614 366.5370000000001 234.069 370.163C230.524 373.79 225.7 375.885 220.63 376C152.46 376 97 320.56 97 252.42C97 247.275 99.0439 242.34 102.682 238.702C106.32 235.064 111.255 233.02 116.4 233.02C121.545 233.02 126.48 235.064 130.118 238.702C133.756 242.34 135.8 247.275 135.8 252.42zM306.5 218C306.5 250.58 327.77 277 354 277C327.77 277 306.5 303.41 306.5 336C306.5 303.4700000000001 285.3 277.0900000000001 259.12 277C285.3 276.92 306.5 250.54 306.5 218zM442.63 23.17C443.181 20.361 443.104 17.464 442.406 14.688C441.707 11.911 440.403 9.323 438.588 7.109C436.772 4.896 434.49 3.11 431.904 1.881C429.318 0.652 426.493 0.01 423.63 0H19.47C16.6027 0.009 13.7724 0.649 11.1801 1.874C8.58778 3.099 6.29689 4.88 4.46997 7.09C2.65695 9.276 1.34859 11.836 0.638172 14.586C-0.0722486 17.336 -0.167238 20.209 0.359974 23L29.27 116C30.1732 120.397 32.5635 124.348 36.0385 127.19C39.5136 130.031 43.8613 131.588 48.35 131.6H80.7L78.9 133.7C50.7227 167.13 35.2598 209.439 35.24 253.1600000000001C35.24 355.65 118.82 439 221.53 439C324.24 439 407.79 355.65 407.79 253.1600000000001C407.764 209.437 392.294 167.128 364.11 133.7L362.31 131.6H394.71C399.194 131.58 403.5350000000001 130.019 407.006 127.179C410.476 124.339 412.864 120.392 413.77 116L442.63 23.17zM137.26 132.17L137.6 131.96H303.38L303.71 132.17C323.501 145.677 339.699 163.806 350.902 184.987C362.104 206.167 367.973 229.759 368 253.7200000000001C368 334.95 301.81 401 220.51 401C139.21 401 73 334.95 73 253.7200000000001C73.0273 229.768 78.8936 206.185 90.0909 185.012C101.288 163.839 117.479 145.715 137.26 132.21V132.17zM398 39L376.79 91.22L376.46 92H63.54L42 39H398z" />
    <glyph glyph-name="category-handmade"
      unicode="&#xEA23;"
      horiz-adv-x="512" d="M140.4 23.3C176.9 7.9 215.9 0 256 0V0.2C296.1 0.2 334.9 8.1 371.6 23.5C407 38.4 438.8 59.8 466.1 87.1C472.5 93.3 473.4 103.1 468.2 110.4L348.6 281.6L357.8 335.6L394.9000000000001 322.6C403.6 319.6 413.2000000000001 323.7 417.3 332L451.4 403.7C455.5000000000001 412 452.5000000000001 421.8 444.8 426.7L315.1 509.2C310.6 512 305.1 512.6 300 511.1S290.8 505.8 288.7 500.9C286.8 496.6 284.2 492.8 281 489.6C277.8 486.2 274 483.6 269.7 481.9C261 478.3 250.9 478.3 242.2 481.9C237.9 483.8 234.1 486.4 230.9 489.6C227.7 493 225.1 496.6 223.4 500.9C221.3 505.8 217.2 509.6 212.1 511.1C207 512.8 201.4 512 197 509.2L67.2 426.5C59.5 421.6 56.7 411.8 60.6 403.5L94.7 331.8C98.8 323.3 108.4 319.2000000000001 117.1 322.4L154.2 335.4L163.4 281.4L43.7 110.1C38.8 102.8 39.6 93 45.8 86.8C73.2 59.5 105 38.2 140.4 23.3zM154.5 56.7C128 67.8 103.9 83.2 82.6 102.1L186.9 251.4H325.3L429.6 102.1C408.3 83.1 384.2 67.8 357.7 56.7C293.1 29.7 218.7 29.7 154.5 56.7zM315.3 302.7H196.7L186.4 362.9C185.3 368.2 182.3 372.7 177.7 375.5C173.2 378.3 167.7 378.7 162.6 377L120.6 362.3L100.3 404.8L201 468.9C202.3 467.2 203.8 465.7 205.3 464.2C211.9 457.6 219.6 452.5 228.1 448.8C245.8 441.3 266.3 441.3 284 448.8C292.5 452.4 300.2 457.5 306.8 464.2C308.3 465.7 309.8 467.2 311.1 468.9L411.8 404.7L391.5 362.2L349.5 376.9C344.4 378.6 339 378.2 334.4 375.4C329.7 372.6 326.5 368.1 325.7 362.8L315.3 302.7z" />
    <glyph glyph-name="category-health"
      unicode="&#xEA24;"
      horiz-adv-x="512" d="M0.160103 19.938C-0.521421 15.007 0.990709 9.969 4.35573 6.084C7.72075 2.241 12.5127 0 17.5603 0C26.058 0 33.3631 6.425 34.5344 14.943C47.526 107.888 102.516 163.689 181.637 164.266C258.159 163.689 313.661 106.479 326.4820000000001 14.943C327.653 6.425 334.959 0 343.435 0C348.483 0 353.296 2.241 356.682 6.084C359.983 9.926 361.495 14.964 360.856 19.96C348.653 107.931 315.812 160.146 257.499 184.268L245.743 189.135L253.964 198.869C275.943 224.827 283.0350000000001 258.726 273.43 291.836C263.803 324.731 236.244 350.882 203.212 358.4170000000001C195.651 360.125 188.026 361 180.53 361C126.923 361 83.3273 316.8540000000001 83.3273 262.5900000000001C83.3273 239.215 91.5056 217.185 107.032 198.869L115.274 189.135L103.496 184.268C45.2046 160.167 12.3636 107.973 0.160103 19.938zM180.011 327C214.726 327 243 298.723 243 263.968C243 229.447 215.391 201.831 180.14 201.064L178.873 201C144.673 201.767 117 230.002 117 263.968C117 298.723 145.274 327 180.011 327zM327.231 298.9070000000001C296.862 320.074 277 355.184 277 394.9170000000001C277 459.58 329.6070000000001 512 394.5 512C459.393 512 512 459.58 512 394.9170000000001C512 332.719 463.329 281.849 401.868 278.06L335.75 231L327.231 298.9070000000001zM393.195 306.356L402.424 306.924C447.568 309.7050000000001 483 347.096 483 392.379C483 439.6662 444.496 478 397 478C349.504 478 311 439.6662 311 392.379C311 364.049 324.884 338.099 347.787 322.15L359.526 313.975L363.164 285L393.195 306.356zM354.648 403C346.558 403 340 409.492 340 417.5C340 425.5081 346.558 432 354.648 432H438.352C446.442 432 453 425.5081 453 417.5C453 409.492 446.442 403 438.352 403H354.648zM354.648 357C346.558 357 340 363.492 340 371.5C340 379.5080000000001 346.558 386 354.648 386H438.352C446.442 386 453 379.5080000000001 453 371.5C453 363.492 446.442 357 438.352 357H354.648z" />
    <glyph glyph-name="category-hobby"
      unicode="&#xEA25;"
      horiz-adv-x="512" d="M0 348.4700000000001C0 438.8 73.07 512 163.24 512C240.24 512 304.82 458.57 322 386.69C315.361 385.605 309.14 382.74 304 378.4L289.37 366.07C289.137 367.637 288.887 369.197 288.62 370.75L288.45 370.6C283.835 392.678 272.776 412.8901 256.67 428.68C235.04 407.2 222.67 378.77 222.67 348.4700000000001C222.66 338.382 224.043 328.3400000000001 226.78 318.63L197.45 293.88C190.468 311.233 186.883 329.765 186.89 348.4700000000001C186.89 389.17 203.76 427.2200000000001 232.81 455.4C212.139 468.9444 187.963 476.1593 163.25 476.1593C138.537 476.1593 114.361 468.9444 93.69 455.4C122.74 427.2200000000001 139.61 389.17 139.61 348.4700000000001C139.61 307.77 122.74 269.7 93.69 241.4700000000001C110.122 230.674 128.844 223.857 148.37 221.56L144.18 186C63 195.46 0 264.5800000000001 0 348.4700000000001zM69.8 268.24C91.43 289.7 103.8 318.17 103.8 348.4700000000001C103.8 378.77 91.43 407.2 69.8 428.67C48.19 407.2 35.8 378.81 35.8 348.4700000000001C35.8 318.13 48.17 289.7 69.8 268.24zM397.89 197.33L401.49 197.85L430.89 177.21L431.51 173.48C429.23 170.35 425.9700000000001 169.48 418.94 169.48H356.05C354.94 167.77 352.9100000000001 166.69 349.65 165.96V122.7C349.6720000000001 119.834 349.488 116.97 349.1 114.13C355.029 121.755 360.314 129.859 364.9 138.36L368.49 139.42L389.37 128.06C382.77 139.9 373.8 150.81 364.37 158.14L364 162L365.25 163.46L367.6 164.36C407.6 159.3 428.51 143.51 428.51 124.62C428.51 113.62 420.51 104.87 410.43 104.87C406.11 104.87 401.81 106.44 396.83 110.96C396.57 111.87 396.37 112.54 396.19 113.08C395.041 113.046 393.892 113.093 392.75 113.22C354.75 67.38 316.26 52.52 246.23 49.61L243.5 51.86L243.08 54.57L245.13 57.57C279.13 65.03 304.7 74.87 325.13 90.41C320.516 89.413 315.838 88.745 311.13 88.41L308.28 91C308.28 107.86 304.06 112.35 288.51 114.22L286.17 116.85V119.35L288.83 122.01H313.83C313.933 122.027 314.037 122.027 314.14 122.01C314.123 122.116 314.123 122.224 314.14 122.33V169.47H234.4L231.87 171.33L230.87 174.67L233.4 178.11H263.49V231.55L266.38 234.19L302.25 230.85L304.62 227.78C304.04 224.3 301.8 222.33 297.35 221.24V178.11H313.95V250.32L316.85 252.95L355.43 249.2L357.79 246.2C357.2200000000001 242.4700000000001 354.74 240.3 349.9 239.2V218.61H366.83L382.3 237.85L385.88 238.36L415.49 217.72L416.12 213.98C413.88 210.91 410.36 209.98 403.76 209.98H349.86V178.17H382.63L397.89 197.33zM240.29 100.81L237.08 102L235.83 104.29L236.34 107.49C251.81 122.03 266.06 146.26 272.54 166.83L276.3 168.38L310.3 150.44L311.52 147.12C310.21 143.84 307.1600000000001 142.33 302.31 142.46C287.36 125 264.76 109.42 240.29 100.81zM339.23 363.0900000000001C336.221 365.615 332.418 366.999 328.49 366.999C324.562 366.999 320.759 365.615 317.75 363.0900000000001L176.18 244C172.931 241.266 170.846 237.397 170.35 233.18L145.12 18.63C144.845 16.291 145.068 13.92 145.775 11.673C146.482 9.426 147.657 7.355 149.222 5.595C150.788 3.835 152.708 2.426 154.857 1.462C157.006 0.498 159.335 -0.001 161.69 0H495.31C497.666 0.001 499.995 0.5 502.144 1.466C504.293 2.431 506.213 3.841 507.778 5.601C509.343 7.362 510.518 9.434 511.225 11.682C511.932 13.929 512.155 16.3 511.88 18.64L486.62 233.21C486.121 237.418 484.036 241.277 480.79 244L339.23 363.0900000000001zM202.72 222.75L328.49 328.52L454.26 222.75L476.55 33.37H180.45L202.72 222.75z" />
    <glyph glyph-name="category-homepage"
      unicode="&#xEA26;"
      horiz-adv-x="512" d="M77 416.6702C77 442.7636 97.9991 464 123.84 464L467.076 463.4575C491.752 461.7523 512 446.0618 512 420.976V203.496C512 177.868 489.706 152.326 463.736 152.326L460.24 152.791H336.136C327.073 152.791 319.7200000000001 145.221 319.7200000000001 135.895C319.7200000000001 134.345 319.649 132.611 319.575 130.799C319.209 121.824 318.765 110.921 326.435 110.921H399.806C414.177 110.921 425.88 106.27 425.88 87.066C425.88 67.998 414.342 67.999 400.111 68H202.122C193.473 68 180.553 74.321 180.553 87.066C180.553 87.066 180.553 110.921 202.122 110.921H263.86C270.765 110.921 269.76 119.669 268.818 127.864C268.491 130.702 268.173 133.473 268.193 135.791C268.115 144.989 260.3210000000001 152.791 251.181 152.791H180.242V181.967H460.214C470.623 181.967 481.792 193.085 481.792 203.496V410.177C481.792 420.5885 470.623 427.4003 460.214 427.4003H130.08C119.646 427.4003 112.818 420.5885 112.818 410.177V322.295H77.1036L77 416.6702zM130.935 295C148.492 295 162 279.9600000000001 162 262.2680000000001V79.686C162 62.009 148.481 47 130.935 47H31.0861C13.526 47 0 62.002 0 79.686V262.2680000000001C0 279.966 13.5152 295 31.0861 295H130.935zM32 262C32.1137 261.956 32.1415 79.338 32.1415 79.338C32.1415 79.143 128.967 79 128.967 79C128.88 79.045 128.857 261.616 128.857 261.616C128.857 261.85 32 262 32 262z" />
    <glyph glyph-name="category-illust"
      unicode="&#xEA27;"
      horiz-adv-x="512" d="M405.104 60.879C404.351 60.675 403.614 60.42 402.877 60.165C401.49 59.685 400.101 59.205 398.592 59.059V64.241C398.592 69.416 398.097 74.475 397.602 79.523L397.599 79.556C397.554 80.015 397.509 80.475 397.465 80.935L367.667 158.75C354.614 176.789 338.094 192.167 318.896 203.652C328.312 211.018 336.6 219.674 343.789 229.142C333.95 236.817 326.057 247.069 320.588 259.366C306.943 236.593 284.419 219.646 257.722 213.427C257.509 213.385 257.296 213.343 257.084 213.3L256.817 213.247C255.017 212.888 253.247 212.535 251.435 212.223C246.051 211.327 240.61 210.57 235 210.57C229.362 210.57 223.893 211.327 218.536 212.223C217.23 212.451 215.923 212.701 214.609 212.953C213.826 213.103 213.04 213.253 212.25 213.399C168.272 223.679 135.345 262.783 135.345 309.617C135.345 364.211 180.056 408.664 235 408.664C277.061 408.664 312.948 382.53 327.551 345.836C339.673 367.992 340.6600000000001 374.519 340.4340000000001 376.256L332.541 403.93C307.761 429.2244 273.227 445.0787000000001 235 445.0787000000001C159.843 445.0787000000001 98.6684 384.295 98.6684 309.617C98.6684 266.5080000000001 119.417 228.469 151.104 203.652C103.433 175.22 71.4078 123.4 71.4078 64.241V59.059C52.0687 60.795 36.6765 76.509 36.6765 96.229V414.7708C36.6765 435.611 53.732 452.5857 74.7061 452.5857H395.294C416.268 452.5857 433.324 435.611 433.324 414.7708V389.925C446.122 379.309 459.485 366.3400000000001 470 351.046V414.7708C470 455.6949 436.481 489 395.294 489H74.7061C33.5473 489 0 455.6949 0 414.7708V96.229C0 55.305 33.5473 22 74.7061 22H395.294C403.441 22 411.109 23.625 418.467 26.034L405.104 60.879zM108.084 58.414V64.24C108.084 118.33 142.703 164.184 190.909 182.055C204.836 177.293 219.467 174.156 235 174.156C250.505 174.156 265.164 177.293 279.091 182.055C327.269 164.184 361.916 118.33 361.916 64.24V58.414H108.084zM347.6190000000001 421L383.4940000000001 400.618C391.041 396.322 457.611 357.214 467.72 307.128C471.437 288.767 467.016 270.828 454.992 255.274L451.613 250.866L384.592 232L381.044 232.505C360.685 235.425 343.986 249.631 336.326 270.491L335.876 271.754L335.397 273.944C329.343 291.743 331.398 313.136 341.423 331.076C356.996 358.7580000000001 361.529 371.925 358.882 381.386L347.6190000000001 421zM382.909 267L430.954 280.589C434.766 287.074 435.831 293.6720000000001 434.374 300.972C430.393 320.765 408.781 341.625 390.113 356C386.497 344.18 379.965 331.069 371.024 315.094C365.642 305.408 364.52 293.925 367.968 283.565L368.641 280.841C369.65 278.4550000000001 373.771 269.779 382.909 267zM474.886 231.238C474.013 235.894 471.199 239.99 467.204 242.459C463.152 244.955 458.255 245.657 453.697 244.366L403.131 230.088L383.265 224.505C383.254 224.505 383.247 224.505 383.241 224.503C383.237 224.502 383.233 224.5 383.229 224.496C383.224 224.492 383.218 224.486 383.209 224.477C378.679 223.187 374.908 220.073 372.769 215.865C370.687 211.657 370.406 206.72 372.122 202.316L443.004 16.385C448.154 2.724 465.487 -3.3920000000001 484.143 1.882C484.2 1.91 484.256 1.938 484.312 1.938C491.6 4.014 498.016 7.521 502.799 12.037C509.975 18.714 513.183 27.354 511.607 35.629L474.886 231.238zM474.942 34.283C474.041 34.03 473.197 33.862 472.494 33.778L432.93 137.543L456.849 144.276L477.334 35.152C476.992 34.996 476.32 34.776 475.772 34.596L475.77 34.595C475.235 34.42 474.817 34.283 474.942 34.283zM450.63 177.518L420.887 169.13L410.222 197.098L445.086 206.944L450.63 177.518z" />
    <glyph glyph-name="category-learn"
      unicode="&#xEA28;"
      horiz-adv-x="512" d="M153.608 343V307.164H71.3133C51.7572 307.164 35.8358 288.837 35.8358 266.3110000000001V126.68C35.8358 104.154 51.7572 85.801 71.3133 85.801H74.001C83.8814 85.801 91.9189 77.764 91.9189 67.883V52.448L134.691 82.525C137.712 84.675 141.296 85.801 144.981 85.801H271.636C291.243 85.801 307.164 104.154 307.164 126.68V203.547H343V126.68C343 84.368 311.004 49.965 271.636 49.965H150.69L84.3166 3.251C81.2705 1.126 77.6869 0 74.001 0C71.1341 0 68.2928 0.691 65.7587 1.997C59.7946 5.119 56.1087 11.186 56.1087 17.918V51.732C23.4725 59.385 0 90.537 0 126.68V266.3110000000001C0 308.598 31.9963 343 71.3133 343H153.608zM145.24 271C146.555 271 147.947 270.78 150.478 270.2580000000001L150.865 270.178L151.195 270.11L152.836 268.5320000000001C156.768 252.657 164.344 238.394 174.839 227.148L173.726 223.606C169.398 222.669 165.632 221.909 162.028 221.262C161.328 217.191 160.718 212.798 160.276 208.669C164.535 209.783 168.618 210.601 172.698 211.152C172.382 211.465 172.03 211.8 171.641 212.16C170.018 213.658 169.354 215.925 169.96 218.06C170.565 220.153 172.293 221.755 174.438 222.199C176.347 222.587 176.736 222.652 177.483 222.652C177.993 222.652 178.372 222.588 179.025 222.429C179.129 222.402 179.17 222.391 179.22 222.378L179.353 222.343C179.406 222.328 179.451 222.316 179.493 222.304L179.578 222.279C179.776 222.214 180.017 222.107 180.935 221.7C184.593 218.443 187.858 215.869 191.845 213.007C191.987 212.777 191.987 212.777 192.162 212.509C192.327 212.257 192.436 212.088 192.532 211.932C192.805 211.883 193.113 211.825 193.501 211.75L193.634 211.725C194.174 211.621 194.174 211.621 195.415 211.274C203.854 206.435 212.459 203.141 221.344 201.486C221.511 201.459 221.676 201.411 221.835 201.343C222.003 201.271 222.146 201.187 222.276 201.09C222.744 200.76 222.751 200.755 223.288 200.4C223.457 200.289 223.457 200.289 223.63 200.174C224.408 199.654 224.768 199.398 225.297 198.969C234.396 191.104 239 180.523 239 167.583C239 138.469 209.912 116.678 166.881 113.026C166.872 113.013 166.872 113.013 166.573 113C163.754 113 161.305 115.035 160.825 117.788L160.315 120.487C159.709 123.555 161.616 126.514 164.675 127.278C196.774 135.168 214.133 150.895 214.133 171.503C214.133 179.932 210.744 186.541 204.333 190.768C201.246 192.75 197.45 194.081 191.791 195.099C189.513 188.538 186.728 182.949 181.959 175.227C176.525 166.676 171.805 160.671 166.002 154.986C166.39 154.346 166.859 153.676 167.844 152.297C169.8 149.196 170.715 145.834 170.715 141.858C170.715 133.272 166.599 128.168 160.925 128.168C155.938 128.168 152.474 131.659 148.741 139.462C138.676 131.703 128.597 126.989 121.52 126.989C114.518 126.989 110.828 130.607 107.86 138.563C106.82 141.095 106.548 141.641 105.074 144.133C102.073 148.915 101 152.378 101 157.36C101 168.165 106.987 178.37 119.148 188.613C125.474 193.719 131.959 197.704 140.335 201.614C140.424 202.691 140.521 203.862 140.631 205.179L140.707 206.079C140.823 207.464 140.953 209.006 141.103 210.758C141.114 210.938 141.124 211.105 141.135 211.268L141.148 211.462L141.155 211.559L141.169 211.751C141.261 213.006 141.405 214.41 141.921 219.304C126.456 219.318 116.618 224.748 108.564 237.69C107.7 239.004 107.415 240.636 107.783 242.147C108.146 243.676 109.084 244.9700000000001 110.437 245.804L112.644 247.162C115.086 248.664 118.281 248.169 120.129 246.004C125.64 239.694 129.774 237.974 139.592 237.974C141.319 237.974 142.645 238.03 144.246 238.185C145.026 244.638 145.54 250.003 145.54 251.878C145.54 255.061 144.89 255.777 138.567 257.706C136.498 258.3540000000001 134.94 260.065 134.547 262.146C134.098 264.266 134.902 266.4600000000001 136.595 267.827C139.503 270.202 141.672 271 145.24 271zM140.88 186.753C132.157 181.192 127.322 176.589 123.023 169.799C122.708 169.269 122.708 169.269 122.667 168.607C119.649 164.668 117.994 159.707 117.994 154.618C117.994 149.776 119.635 145.821 122.88 145.821C127.388 145.821 136.58 150.611 145.185 157.509L145.614 157.855L146.371 159.884C144.735 169.096 144.227 174.629 144.174 184.063L144.17 184.96L140.88 186.753zM440.687 512C480.004 512 512 477.5976 512 435.2857V295.68C512 259.5370000000001 488.528 228.359 455.891 220.732V186.918C455.891 180.211 452.205 174.094 446.241 170.997C443.707 169.691 440.866 169 437.999 169C434.313 169 430.729 170.126 427.683 172.276L361.31 218.965H240.364C200.996 218.965 169 253.393 169 295.68V435.2857C169 477.5976 200.996 512 240.364 512H440.687zM174.238 199.21C168.553 198.356 163.563 197.044 157.209 194.732L156.407 194.437L155.012 192.436V189.54C155.012 183.672 155.388 177.866 156.107 172.415C156.138 172.167 156.213 171.924 156.343 171.674C156.606 171.183 157.053 170.814 157.612 170.637C158.142 170.477 158.72 170.529 159.239 170.798C159.464 170.918 159.663 171.076 159.829 171.263C167.785 180.099 172.539 187.135 176.26 195.65L176.524 196.26L174.238 199.21zM440.687 476.1642H240.364C220.757 476.1642 204.836 457.8367 204.836 435.2857V295.68C204.836 273.154 220.757 254.801 240.364 254.801H367.018C370.704 254.801 374.288 253.675 377.3090000000001 251.55L420.081 221.448V236.883C420.081 246.764 428.1190000000001 254.801 437.999 254.801H440.687C460.243 254.801 476.164 273.154 476.164 295.68V435.2857C476.164 457.8367 460.243 476.1642 440.687 476.1642zM352.104 450C355.087 450 357.655 447.9149 358.282 444.9815L358.329 444.7498C358.3450000000001 444.6731 358.362 444.5969 358.378 444.521L358.428 444.294C358.521 443.8789 358.623 443.4669 358.747 443.0252L358.817 442.7812C359.5 440.4311 360.818 437.1248 364.456 428.2982L407.367 322.7050000000001C412.356 310.754 414.628 305.822 417.152 301.456C418.289 299.499 418.277 297.081 417.15 295.209C416.058 293.222 413.955 292 411.681 292H391.942C388.995 292 386.436 294.044 385.772 296.926C384.394 303.118 382.438 309.57 380.127 315.526L371.7850000000001 336.197H313.401L305.041 315.493C302.253 308.397 300.688 303.233 299.45 297.078C298.868 294.1330000000001 296.271 292 293.27 292H273.325C271.045 292 268.947 293.2290000000001 267.8210000000001 295.206C266.688 297.194 266.7320000000001 299.645 267.926 301.567C271.544 307.552 272.739 310.1040000000001 277.786 322.661L320.73 428.2729C324.213 436.8401 325.642 440.9797 326.55 445.0308C327.17 447.932 329.757 450 332.723 450H352.104zM342.513 412.335L322.985 361.99H362.192L342.513 412.335z" />
    <glyph glyph-name="category-legal"
      unicode="&#xEA29;"
      horiz-adv-x="512" d="M316.118 449H405C416.598 449 426 439.598 426 428V427C426 415.402 416.598 406 405 406H316.475C310.126 387.714 295.717 373.197 277.5 366.701V65H405C416.598 65 426 55.598 426 44V43C426 31.402 416.598 22 405 22H277.366C277.193 21.701 276.87 21.5 276.5 21.5H235.5C235.13 21.5 234.807 21.701 234.634 22H106C94.402 22 85 31.402 85 43V44C85 55.598 94.402 65 106 65H234.5V366.701C216.283 373.197 201.874 387.714 195.525 406H106C94.402 406 85 415.402 85 427V428C85 439.598 94.402 449 106 449H195.882C204.853 473.5086 228.384 491 256 491C283.616 491 307.147 473.5086 316.118 449zM104.618 372.217C96.741 387.928 74.2588 387.928 66.3816 372.217L2.25687 244.317C-1.57137 236.682 -0.462496 227.505 5.07501 220.995C29.455 192.333 55.6377 177 83.6472 177C111.27 177 138.31 191.946 165.124 220.106C171.32 226.612 172.767 236.292 168.743 244.317L104.618 372.217zM21.3752 234.784L85.4999 362.683L149.625 234.784H21.3752zM407.382 372.217C415.259 387.928 437.741 387.928 445.618 372.217L509.743 244.317C513.767 236.292 512.32 226.612 506.124 220.106C479.31 191.946 452.27 177 424.647 177C396.638 177 370.455 192.333 346.075 220.995C340.538 227.505 339.429 236.682 343.257 244.317L407.382 372.217zM426.5 362.683L362.375 234.784H490.625L426.5 362.683z" />
    <glyph glyph-name="category-lesson"
      unicode="&#xEA2A;"
      horiz-adv-x="512" d="M490.67 69.38V304.78C482.117 291.238 471.292 279.272 458.67 269.41V69.41H301.05C296.62 99.41 290.68 131.73 272.46 156.85C264.78 167.43 255.06 177.85 242.83 182.85L246.97 187.72C262.9700000000001 206.36 268.05 230.7200000000001 261.08 254.43C257.509 266.1670000000001 250.919 276.76 241.969 285.151C233.019 293.541 222.023 299.434 210.08 302.24C204.689 303.442 199.183 304.049 193.66 304.05C174.943 304.011 157.005 296.552 143.779 283.308C130.552 270.065 123.116 252.118 123.1 233.4C123.118 216.578 129.232 200.331 140.31 187.67L144.47 182.8C143.61 183.8 136.47 178.62 135.52 177.97C130.861 174.594 126.573 170.732 122.73 166.45C109.58 152.32 101.4 134.75 95.94 116.39C91.37 101.04 88.55 85.21 86.22 69.39H53.33V325.39C53.3327 328.219 54.458 330.93 56.4587 332.929C58.4594 334.928 61.1719 336.05 64 336.05H241.35C237.999 346.4310000000001 235.891 357.173 235.07 368.05H64C52.684 368.048 41.8323 363.551 33.8307 355.55C25.8291 347.548 21.3327 336.6960000000001 21.33 325.38V69.38H0V56.05C0 33.38 14.47 16.05 33.39 16.05H478.61C497.53 16.05 512 33.38 512 56.05V69.38H490.67zM193.67 275.67C204.875 275.66 215.618 271.204 223.541 263.281C231.464 255.358 235.919 244.615 235.93 233.4100000000001C235.93 210.61 217.35 191.71 193.62 191.23H192.73C187.184 191.289 181.704 192.439 176.603 194.615C171.502 196.792 166.879 199.951 162.999 203.914C155.163 211.917 150.827 222.705 150.945 233.905C151.003 239.451 152.154 244.931 154.33 250.032C156.506 255.133 159.666 259.756 163.629 263.636C171.632 271.472 182.42 275.808 193.62 275.69L193.67 275.67zM114.86 69.38C123.3 122.9 138.42 162.38 194.46 162.83C248.94 162.42 263.98 122.89 272.46 69.38H114.86zM315.73 357.38C315.746 361.338 317.325 365.129 320.123 367.927C322.9220000000001 370.726 326.713 372.305 330.67 372.32H416C435 371.81 435 342.9600000000001 416 342.45H330.67C326.714 342.466 322.925 344.044 320.127 346.8400000000001C317.329 349.636 315.748 353.425 315.73 357.38zM306.1600000000001 282.5L314.67 214.45L380.67 261.61C408.327 263.352 434.475 274.828 454.481 294.005C474.486 313.182 487.058 338.8210000000001 489.967 366.38C492.877 393.939 485.937 421.6387 470.378 444.5704C454.818 467.5022 431.643 484.1857 404.959 491.6649C378.275 499.1441 349.805 496.9361 324.594 485.4322C299.382 473.9282 279.057 453.871 267.219 428.8144C255.381 403.758 252.795 375.32 259.919 348.539C267.043 321.7580000000001 283.417 298.363 306.14 282.5H306.1600000000001zM373.33 464.0505C395.471 464.0121 416.73 455.3701 432.6190000000001 439.9495C448.507 424.529 457.78 403.5370000000001 458.479 381.4070000000001C459.179 359.277 451.25 337.741 436.368 321.348C421.486 304.9550000000001 400.814 294.987 378.7200000000001 293.55L369.56 292.98L339.76 271.7L336.15 300.5800000000001L324.5 308.7200000000001C309.605 319.112 298.414 333.985 292.554 351.175C286.694 368.366 286.471 386.978 291.917 404.303C297.364 421.6292 308.1960000000001 436.7657 322.838 447.5111C337.48 458.2565 355.168 464.0506 373.33 464.0505zM315.73 400.05C315.748 404.006 317.329 407.795 320.127 410.591C322.925 413.3869 326.714 414.9647 330.67 414.9805H416C435.52 414.9005 435.51 385.2 416 385.12H330.67C326.714 385.136 322.925 386.714 320.127 389.51C317.329 392.306 315.748 396.0950000000001 315.73 400.05z" />
    <glyph glyph-name="category-life"
      unicode="&#xEA2B;"
      horiz-adv-x="512" d="M302.503 478.1968C277.471 503.26772 235.698 503.26772 210.613 478.1968L6.87583 274.3060000000001C-2.29194 265.161 -2.29194 250.299 6.87583 241.074C16.0436 231.928 30.9246 231.928 40.0924 241.074L69.9873 271.01V37.529C69.9873 24.528 80.5103 14 93.5046 14H200.276C216.379 14 229.427 27.08 229.427 43.218V120.345C229.427 135.074 241.332 146.932 256 146.932C270.668 146.932 282.6 135.074 282.6 120.345V43.218C282.6 27.08 295.621 14 311.751 14H418.522C431.49 14 442.039 24.528 442.039 37.529V271.01L471.908 241.074C481.075 231.928 495.956 231.928 505.124 241.074C514.292 250.299 514.292 265.161 505.124 274.3060000000001L302.503 478.1968zM402 54H322.084V120.436C322.084 157.082 292.222 186.872 255.487 186.872C218.805 186.872 188.89 157.082 188.89 120.436V54H109V320.966L238.278 449.9046C242.887 454.5286 248.987 457 255.487 457C261.987 457 268.113 454.5286 272.722 449.9046L402 320.966V54zM491 433.4059V310L450.411 351.18V430.8892H410.662V391.469L364 438.7955C366.628 457.0136 381.998 471 400.768 471H453.724C474.283 471 491 454.1851 491 433.4059z" />
    <glyph glyph-name="category-love"
      unicode="&#xEA2C;"
      horiz-adv-x="512" d="M232.793 455.4274H226.554C227.377 456.4457 228.207 457.4531 229.042 458.4498C203.771 478.15 174.193 488 140.308 488C100.923 488 67.6924 473.9267 40.6154 445.7797C13.5383 417.6326 0 382.663 0 340.868C0 316.1330000000001 4.30765 292.464 12.9231 269.862C21.5385 247.259 37.9486 221.458 62.1538 192.458C86.3591 163.458 107.897 139.576 126.769 120.811C145.641 102.046 203.509 44.876 219.077 31.253C220.113 30.346 221.12 29.461 222.1 28.6C235.849 16.519 244.407 9 256 9C266.724 9 274.976 16.02 286.944 26.202C288.836 27.811 290.8210000000001 29.5 292.923 31.253C307.175 43.133 357.943 93.656 380.391 115.996C382.199 117.795 383.824 119.412 385.231 120.811C404.103 139.576 425.641 163.458 449.846 192.458C474.051 221.458 490.462 247.259 499.077 269.862C507.692 292.464 512 316.1330000000001 512 340.868C512 382.663 498.462 417.6326 471.385 445.7797C444.308 473.9267 411.077 488 371.692 488C337.807 488 308.229 478.15 282.9580000000001 458.4498C283.793 457.4531 284.623 456.4457 285.4460000000001 455.4274H279.207C271.002 448.5952 263.266 440.6881 256 431.7062C248.734 440.6881 240.998 448.5952 232.793 455.4274zM313.577 103.489C290.942 81.275 274.623 65.706 268.653 60.736C263.392 56.355 259.709 53.281 257.132 51.129L255.78 50C253.383 52.008 249.76 55.145 244.036 60.147C232.485 70.244 189.749 111.95 153.554 147.898C135.606 165.723 114.841 188.72 91.3501 216.832C69.6235 242.832 55.3696 265.217 48.4432 283.367C41.4769 301.622 38 320.704 38 340.839C38 373.004 47.8874 398.514 68.0504 419.449C87.9621 440.1234 111.31 450 140.391 450C175.586 450 203.349 436.5067 226.575 407.829L256 371.497L285.425 407.829C308.651 436.5067 336.414 450 371.609 450C400.69 450 424.038 440.1234 443.95 419.449C464.113 398.514 474 373.004 474 340.839C474 320.704 470.523 301.622 463.557 283.367C456.63 265.217 442.376 242.832 420.65 216.832C397.159 188.72 376.394 165.723 358.4460000000001 147.898C360.911 150.346 345.311 134.842 339.999 129.574C331.054 120.702 322.895 112.641 315.136 105.02L313.577 103.489z" />
    <glyph glyph-name="category-music"
      unicode="&#xEA2D;"
      horiz-adv-x="512" d="M377.449 228C387.566 228 395.817 219.909 395.997 209.951L396 209.618V168.391C396 139.794 372.649 116.345 343.87 115.879L342.996 115.872L261.768 115.873C262.121 114.496 262.327 113.062 262.3690000000001 111.589L262.377 111.035V56.389H336.662C351.291 56.389 363.164 49.378 363.164 34.909C363.164 27.724 357.371 17.259 350.18 17.005L349.913 17H135.114C127.773 17 121.863 27.635 121.863 34.909C121.863 49.233 133.499 56.248 147.927 56.387L148.365 56.389H222.623V111.035C222.623 112.703 222.835 114.324 223.232 115.873L142.004 115.872C113.143 115.872 89.4776 139.035 89.0071 167.526L89 168.391V209.618C89 219.728 97.3482 228 107.551 228C117.643 228 125.919 219.909 126.1 209.951L126.103 209.618V168.391C126.103 159.96 133.216 152.81 141.693 152.638L142.004 152.635H342.996C351.505 152.635 358.747 159.684 358.92 168.083L358.924 168.391V209.618C358.924 219.728 367.245 228 377.449 228zM297.01 495C325.889 495 349.523 471.8416 349.993 443.3568L350 442.492V245.508C350 216.891 326.655 193.473 297.883 193.007L297.01 193H192.99C164.137 193 140.477 216.133 140.007 244.642L140 245.508V442.492C140 471.0826 163.371 494.5269 192.117 494.9929L192.99 495H297.01zM297.01 458.2444H192.99C184.483 458.2444 177.269 451.1974 177.096 442.7998L177.093 442.492L177.093 412.25L224.148 412.25C225.575 412.25 226.732 411.182 226.819 409.793L226.824 409.625V383.371C226.824 381.982 225.722 380.836 224.318 380.75L224.148 380.745L177.093 380.746V359.742L224.148 359.742C225.575 359.742 226.732 358.674 226.819 357.285L226.824 357.117V330.862C226.824 329.474 225.722 328.328 224.318 328.242L224.148 328.237L177.093 328.238V307.2340000000001L224.148 307.2340000000001C225.575 307.2340000000001 226.732 306.166 226.819 304.777L226.824 304.608V278.3540000000001C226.824 276.966 225.722 275.82 224.318 275.7340000000001L224.148 275.7290000000001L177.093 275.73L177.093 245.508C177.093 237.052 184.205 229.904 192.68 229.733L192.99 229.729H297.01C305.517 229.729 312.757 236.776 312.93 245.199L312.933 245.508L312.933 275.73L265.854 275.7290000000001C264.428 275.7290000000001 263.295 276.8210000000001 263.21 278.189L263.205 278.3540000000001V304.608C263.205 306.022 264.283 307.145 265.685 307.2290000000001L265.854 307.2340000000001L312.933 307.2340000000001V328.238L265.854 328.237C264.428 328.237 263.295 329.329 263.21 330.697L263.205 330.862V357.117C263.205 358.53 264.283 359.653 265.685 359.737L265.854 359.742L312.933 359.742V380.746L265.854 380.745C264.428 380.745 263.295 381.837 263.21 383.2050000000001L263.205 383.371V409.625C263.205 411.038 264.283 412.1606 265.685 412.2449000000001L265.854 412.25L312.933 412.25L312.933 442.492C312.933 450.9217 305.796 458.0702 297.32 458.2412L297.01 458.2444zM40.2624 384C48.7815 381.786 58.7743 377.55 70.3128 371.389C81.8154 365.228 88.034 360.607 88.9326 357.591C89.1123 356.949 88.9326 355.9550000000001 88.3934 354.607C87.8183 353.259 87.1353 352.4890000000001 86.3086 352.296C86.137 352.253 85.9574 352.225 85.7699 352.213L85.5798 352.207C84.4231 352.202 82.982 352.772 81.2762 353.901C78.0411 355.9550000000001 72.5415 358.682 64.8132 362.148C57.0849 365.581 50.5428 368.02 45.2229 369.496L71.6428 287.798C73.0806 282.921 67.2934 275.541 64.9569 271.947C62.6205 268.353 58.5586 264.5660000000001 52.7714 260.6190000000001C47.0201 256.64 40.8735 253.881 34.3673 252.3090000000001C30.9337 251.49 27.6885 251.056 24.6317 251.005L24.0942 251C19.8101 250.992 15.9016 251.749 12.3687 253.271C6.18603 255.9340000000001 2.30392 259.913 0.722315 265.208C-1.21874 271.562 0.758261 277.9790000000001 6.58143 284.493C12.4046 291.007 19.9891 295.403 29.3709 297.618C34.1516 298.765 39.2018 299.352 44.5088 299.371L45.3489 299.37C49.2792 299.3400000000001 53.3487 299.003 57.5522 298.356L30.8806 379.861L40.2624 384zM512 451L507.328 336.647C506.933 326.178 505.567 318.44 503.195 313.3640000000001C500.824 308.252 497.05 304.12 491.803 300.899C487.066 297.971 481.765 296.4600000000001 475.872 296.394L475.281 296.392C474.885 296.394 474.487 296.402 474.087 296.4170000000001C465.641 296.697 459.532 299.6380000000001 455.795 305.241C452.057 310.843 450.332 317.4600000000001 450.62 325.093C450.907 333.356 453.782 340.429 459.245 346.241C464.484 351.8160000000001 471.079 354.588 478.998 354.558L479.505 354.552C479.675 354.549 479.845 354.545 480.016 354.539C484.94 354.3640000000001 490.689 352.403 497.338 348.6570000000001L500.321 415.2166L438.329 394.314L434.879 313.8540000000001C434.556 305.171 433.442 298.063 431.501 292.461C429.597 286.8590000000001 425.895 282.1670000000001 420.433 278.35C415.561 274.947 409.9460000000001 273.158 403.613 273.01L403.0350000000001 273.001L402.454 273.001C402.065 273.004 401.673 273.0130000000001 401.279 273.029C394.019 273.274 388.269 275.9700000000001 383.993 281.117C379.716 286.298 377.74 293.091 378.027 301.4940000000001C378.351 310.598 381.334 317.915 386.976 323.517C392.343 328.848 398.831 331.514 406.407 331.485L406.914 331.4790000000001C407.0830000000001 331.476 407.253 331.471 407.424 331.4650000000001C412.9220000000001 331.255 418.852 329.154 425.141 325.128L429.201 422.9545L512 451z" />
    <glyph glyph-name="category-on-site"
      unicode="&#xEA2E;"
      horiz-adv-x="512" d="M223.784 232.75C236.626 232.75 247.037 243.161 247.037 256.004C247.037 268.846 236.626 279.257 223.784 279.257C210.941 279.257 200.53 268.846 200.53 256.004C200.53 243.161 210.941 232.75 223.784 232.75zM313.852 502.89383C318.141 499.4522 320.637 494.2498 320.637 488.7503V437.9771H418.77C428.7850000000001 437.9771 436.904 429.8585 436.904 419.8437V69.977C436.904 59.962 428.7850000000001 51.844 418.77 51.844C408.756 51.844 400.637 59.962 400.637 69.977V401.71H320.637V23.47C320.637 17.971 318.141 12.768 313.852 9.327C309.562 5.885 303.943 4.576 298.574 5.768L89.0806 52.275C80.782 54.117 74.8771 61.476 74.8771 69.977V442.2436C74.8771 450.7442 80.782 458.1038 89.0806 459.946L298.574 506.45267C303.943 507.64452 309.562 506.33549 313.852 502.89383zM284.37 466.15L111.144 427.6944V84.526L284.37 46.071V466.15z" />
    <glyph glyph-name="category-other"
      unicode="&#xEA2F;"
      horiz-adv-x="513" d="M0 256C0 213.474 34.4741 179 77 179C119.526 179 154 213.474 154 256C154 298.526 119.526 333 77 333C34.4741 333 0 298.526 0 256zM115 255.5C115 234.237 97.763 217 76.5 217C55.237 217 38 234.237 38 255.5C38 276.7630000000001 55.237 294 76.5 294C97.763 294 115 276.7630000000001 115 255.5zM359 256C359 213.474 393.474 179 436 179C478.526 179 513 213.474 513 256C513 298.526 478.526 333 436 333C393.474 333 359 298.526 359 256zM475 255.5C475 234.237 457.763 217 436.5 217C415.237 217 398 234.237 398 255.5C398 276.7630000000001 415.237 294 436.5 294C457.763 294 475 276.7630000000001 475 255.5zM256 179C213.474 179 179 213.474 179 256C179 298.526 213.474 333 256 333C298.526 333 333 298.526 333 256C333 213.474 298.526 179 256 179zM256.5 217C277.763 217 295 234.237 295 255.5C295 276.7630000000001 277.763 294 256.5 294C235.237 294 218 276.7630000000001 218 255.5C218 234.237 235.237 217 256.5 217z" />
    <glyph glyph-name="category-side-business"
      unicode="&#xEA30;"
      horiz-adv-x="512" d="M275.49 281.17L273.4 281.67V368.29L276.74 367.52C294.01 363.42 305.28 351.9600000000001 310.17 333.52C316.17 308.57 360.17 320.16 350.98 345.6C341.64 378.45 313.54 401.19 275.75 406.19L273.4 406.51V419.7200000000001C273.4 428 266.51 434 257 434C247.17 434 240.56 428.28 240.56 419.7200000000001V406.52L238.16 406.26C189.43 400.87 159.16 370.26 159.16 326.26C159.16 270.26 204.4 253.65 238.43 246.01L240.55 245.56V149.87L237.38 150.45C213.99 154.64 202.05 166.54 196.17 191.52C190.48 218.28 146.59 208 153.44 181.58C162.32 140.85 193.19 115.36 238.09 111.47L240.55 111.24V91.24C240.58 83 247.47 77 257 77C266.34 77 273.38 83.13 273.38 91.28V111.28L275.88 111.49C328.37 115.78 360.98 148.29 360.98 196.31C361 256.56 316.88 271.7200000000001 275.49 281.17zM236.66 288.87C206.24 296.76 200 310.28 200 328.18C200 349 213.76 364.0900000000001 236.85 368.42L240 369V288L236.66 288.87zM273 150V240L276.36 239.14C300.74 232.73 318 225.89 318 196.14C318 170.14 303.9 154.75 276.08 150.45L273 150zM256 512C114.84 512 0 397.16 0 256C0 114.84 114.84 0 256 0C397.1600000000001 0 512 114.82 512 256C512 397.18 397.1600000000001 512 256 512zM256 36C134.68 36 36 134.68 36 256C36 377.32 134.68 476 256 476C377.32 476 476 377.32 476 256C476 134.68 377.32 36 256 36z" />
    <glyph glyph-name="category-specialist"
      unicode="&#xEA31;"
      horiz-adv-x="512" d="M363 263C416.63 263.25 416.62 343.77 363 344C309.09 343.0800000000001 309.14 264 363 263zM363.5 279C331.3 279.56 331.3 327.45 363.5 328C395.7 327.44 395.7 279.55 363.5 279zM409.17 142.48V230.67C424.42 229.1 421.4700000000001 252.67 423.58 261.76C455.66 275.49 455.64 274.88 437.81 304.89C455.97 335.0900000000001 455.46 334.25 423.63 348C420.2200000000001 383.31 420.37 381.75 386.43 374.66C363.25 400.66 363.69 400.4700000000001 340.53 374.66C306.61 382.11 306.74 382.74 303.38 348C271.12 334.13 271.29 335.07 289.17 304.89C271.08 274.5900000000001 271.48 275.65 303.38 261.8C305.61 252.36 302.38 229.39 317.84 230.67V142.48C317.77 135.34 326.39 130.95 332.75 133.95L363.5 147.42C363.92 147.21 393.88 134.11 394.32 133.9C400.57 130.94 409.29 135.4 409.17 142.48zM385.19 257C376.7 259.55 369.15 246.56 364 241.94C347.94 259.86 350.42 258.86 326.94 253.86C324.49 277.8400000000001 326 275.4600000000001 304 285.15C316.07 305.77 316.2200000000001 303.05 304 323.69C325.94 333.4700000000001 324.48 330.77 326.94 354.95C350.46 349.95 347.88 348.95 364 366.95C380.15 349.02 377.48 350.02 401.06 355.02C403.48 331.31 402 333.2100000000001 424 323.76C411.88 302.9600000000001 411.76 306.02 424 285.14C401.93 275.52 403.56 277.87 401.06 253.87L385.19 257zM353.24 168.29L352.63 168.01L339 162V234C341.18 232.35 343.93 230.27 345.87 229L353.24 221V168.29zM388.24 161.95L374 168.34V221L374.27 221.32L380.76 228.49C383.64 230.43 385.76 232.12 388.26 234L388.24 161.95zM180.6 359C192.39 359 202 351.82 202 343C202 334.18 192.39 327 180.6 327H75.4C63.61 327 54 334.2 54 343C54 351.8 63.61 359 75.4 359H180.6zM231.6 207C243.37 207 252.96 199.82 252.96 191C252.96 182.18 243.37 175 231.6 175H75.36C63.59 175 54 182.2 54 191C54 199.8 63.59 207 75.36 207H231.6zM253 267C253 275.81 243.41 283 231.64 283H75.36C63.59 283 54 275.82 54 267C54 258.18 63.59 251 75.36 251H231.64C243.41 251 253 258.2 253 267zM32 458H480C488.487 458 496.626 454.6286 502.627 448.6274C508.629 442.6263 512 434.4869 512 426V85C512 76.513 508.629 68.374 502.627 62.373C496.626 56.371 488.487 53 480 53H32C23.5131 53 15.3737 56.371 9.37258 62.373C3.37142 68.374 0 76.513 0 85V426C0 434.4869 3.37142 442.6263 9.37258 448.6274C15.3737 454.6286 23.5131 458 32 458zM32 426V85H480V426H32z" />
    <glyph glyph-name="category-tagline"
      unicode="&#xEA32;"
      horiz-adv-x="513" d="M499.07 439.8798L433.3 469.2198C430.582 470.406 427.646 471.0122 424.68 470.9998C413.68 470.9998 402.09 462.9998 396.1 450.2398L271.74 179.74C265.51 166.45 262.4100000000001 152.21 263.09 139.6L270.37 81.11C270.57 74.75 272.2440000000001 68.523 275.26 62.92H229.07L138.81 303H98.74L0 41.42H36.42L64.84 119.78H167.67L195.06 41.42H195.27V41H467V62.92H328L367.4 92.33C377.17 100.28 385.69 112.1 391.4 125.58L509.73 399.51C516.8 415.9998 512 434.1098 499.07 439.8798zM365.48 145.21L303.27 172.84L424.68 436.9998L480.78 412L365.48 145.21zM352.48 122.27C351.43 118.29 301.88 82.73 301.88 82.73C301.88 82.73 292.9100000000001 143.73 295.2 147.73L352.48 122.27zM117.25 264.2L157.62 148.63H75.31L117.25 264.2z" />
    <glyph glyph-name="category-tech"
      unicode="&#xEA33;"
      horiz-adv-x="512" d="M284.841 422.8029L191.884 101.464C190.226 95.766 190.921 89.776 193.789 84.594C196.657 79.322 201.474 75.53 207.299 73.848C209.83 73.152 212.429 72.861 215.073 73.063C224.438 73.713 232.504 80.219 235.148 89.215L328.127 410.577C329.762 416.2747 329.09 422.2870000000001 326.2 427.4691000000001C323.287 432.6962 318.493 436.4874 312.69 438.1475C310.629 438.7084 308.567 439 306.506 439C296.693 439 287.664 432.6064 284.841 422.8029zM387.407 122.383L504.47 225.7440000000001C509.079 229.802 511.831 235.63 511.988 241.75C512.189 247.937 509.862 253.765 505.41 258.203L388.3690000000001 374.499C383.983 378.826 378.233 381 372.483 381C366.71 381 360.96 378.826 356.574 374.499C352.346 370.285 349.996 364.658 350.019 358.6960000000001C350.019 352.733 352.368 347.151 356.574 342.959L456.812 243.341L357.537 155.693C353.062 151.748 350.399 146.278 350.041 140.338C349.683 134.398 351.674 128.682 355.635 124.243C363.6 115.389 378.501 114.514 387.407 122.383zM139.54 381C133.767 381 128.017 378.826 123.631 374.499L6.59017 258.1810000000001C2.13763 253.765 -0.189316 247.914 0.0120543 241.75C0.168676 235.63 2.92074 229.802 7.5299 225.7440000000001L124.593 122.383C133.476 114.514 148.4 115.389 156.365 124.243C160.326 128.682 162.317 134.398 161.959 140.338C161.601 146.278 158.938 151.726 154.463 155.693L55.1876 243.341L57.3132 245.471L155.426 342.959C159.632 347.151 161.981 352.733 161.981 358.6960000000001C162.004 364.658 159.654 370.2630000000001 155.426 374.499C151.04 378.826 145.29 381 139.54 381z" />
    <glyph glyph-name="category-voice"
      unicode="&#xEA34;"
      horiz-adv-x="512" d="M492.07 298H421.44V258.16H472.14V45.84H158.85V189.42H119V25.92C119.005 20.637 121.107 15.572 124.844 11.837C128.581 8.102 133.647 6.003 138.93 6H492.07C497.353 6.003 502.419 8.102 506.156 11.837C509.893 15.572 511.995 20.637 512 25.92V278.0800000000001C511.995 283.363 509.893 288.428 506.156 292.163C502.419 295.898 497.353 297.997 492.07 298zM359.1600000000001 162.39C358.78 162.39 358.43 162.39 358.05 162.39C355.543 162.289 353.087 161.655 350.8450000000001 160.528C348.603 159.402 346.628 157.811 345.05 155.86L331.65 139.3L301 174.87C299.358 176.769 297.331 178.298 295.054 179.355C292.776 180.412 290.301 180.972 287.79 181H287.53L287.28 180.95C283.63 180.24 278.14 179.18 274.51 175.18L201.56 94.5C199.961 92.787 198.72 90.773 197.907 88.576C197.094 86.378 196.727 84.041 196.826 81.7C196.926 79.36 197.49 77.062 198.486 74.941C199.482 72.821 200.891 70.919 202.629 69.348C204.367 67.777 206.4 66.568 208.611 65.791C210.821 65.013 213.164 64.683 215.503 64.82C217.842 64.957 220.13 65.558 222.234 66.588C224.339 67.618 226.217 69.057 227.76 70.82L287.28 136.68L318.7200000000001 100.27C321.87 96.62 325.98 94.73 332.08 94.14C334.71 94.147 337.306 94.739 339.68 95.873C342.053 97.008 344.143 98.657 345.8 100.7L359.67 117.79L403.4100000000001 70.65C406.593 67.217 411.009 65.188 415.687 65.011C420.365 64.834 424.9220000000001 66.522 428.355 69.705C431.788 72.888 433.817 77.304 433.9940000000001 81.982C434.171 86.66 432.483 91.217 429.3 94.65L371.67 156.72C370.094 158.483 368.167 159.898 366.013 160.875C363.859 161.851 361.525 162.367 359.1600000000001 162.39zM385 186.5C385 190.95 386.32 195.3 388.792 199C391.264 202.7 394.778 205.584 398.89 207.287C403.001 208.99 407.525 209.436 411.89 208.568C416.254 207.699 420.263 205.557 423.4100000000001 202.41C426.557 199.263 428.699 195.254 429.568 190.89C430.436 186.525 429.99 182.001 428.287 177.89C426.584 173.778 423.7 170.264 420 167.792C416.3 165.32 411.95 164 407.5 164C401.533 164.003 395.812 166.374 391.593 170.593C387.374 174.812 385.003 180.533 385 186.5zM393 232.92V485.08C392.979 490.3584 390.872 495.4144 387.139 499.1458C383.405 502.87726 378.348 504.98157 373.07 505H19.93C14.6468 504.99735 9.58056 502.89811 5.84382 499.1632C2.10708 495.4284 0.00529846 490.3632 0 485.08L0 232.92C0.0210814 227.642 2.12793 222.586 5.86125 218.854C9.59458 215.123 14.6516 213.018 19.93 213H373.07C378.348 213.018 383.405 215.123 387.139 218.854C390.872 222.586 392.979 227.642 393 232.92zM40 253V465H354V253H40zM155.87 284.57C163.27 280.57 172.19 281.37 179.33 286.11L256.71 336.57C260.123 338.6570000000001 262.944 341.586 264.9 345.076C266.8570000000001 348.565 267.885 352.499 267.885 356.5C267.885 360.501 266.8570000000001 364.435 264.9 367.924C262.944 371.414 260.123 374.343 256.71 376.43L179.33 426.89C164.07 437.64 143.22 426 144 407V306C144 296.6 148.43 288.5800000000001 155.87 284.57zM179 384L222 356L179 328V384z" />
    <glyph glyph-name="category-web-marketing"
      unicode="&#xEA35;"
      horiz-adv-x="513" d="M49.9093 172.335C45.8076 168.252 40.3716 166 34.6143 166C28.8571 166 23.4211 168.252 19.3194 172.335C10.8935 180.797 10.8935 194.505 19.3194 202.968L118.156 301.945C126.607 310.358 140.295 310.358 148.746 301.945L233.054 217.493L423.018 388.698H405.252C393.342 388.698 383.631 398.4220000000001 383.631 410.349C383.631 422.2755 393.342 432 405.252 432H479.379C491.289 432 501 422.2755 501 410.349V336.116C501 324.19 491.289 314.4650000000001 479.379 314.4650000000001C467.47 314.4650000000001 457.759 324.19 457.759 336.116V361.727L246.743 171.543C238.119 163.872 225.097 164.218 216.993 172.359L133.451 256.019L49.9093 172.335zM21.6325 123H491.367C503.284 123 513 113.343 513 101.5C513 89.657 503.284 80 491.367 80H21.6325C9.7161 80 0 89.657 0 101.5C0 113.343 9.7161 123 21.6325 123z" />
    <glyph glyph-name="check-circle-o"
      unicode="&#xEA36;"
      horiz-adv-x="512" d="M256 512C397.385 512 512 397.385 512 256C512 114.615 397.385 0 256 0C114.615 0 0 114.615 0 256C0 397.385 114.615 512 256 512zM42.6665 256C42.6665 138.18 138.179 42.667 256 42.667C373.8210000000001 42.667 469.333 138.179 469.333 256C469.333 373.8210000000001 373.8210000000001 469.3335 256 469.3335C138.179 469.3335 42.6665 373.8210000000001 42.6665 256zM141.681 280.1570000000001C136.992 284.846 129.392 284.848 124.706 280.1620000000001L101.199 256.655C96.5127 251.969 96.5108 244.373 101.197 239.687L206.078 134.806C210.763 130.121 218.352 130.117 223.04 134.807L409.435 321.325C414.118 326.01 414.115 333.608 409.428 338.294L385.9220000000001 361.801C381.236 366.487 373.639 366.4890000000001 368.948 361.798L214.494 207.344L141.681 280.1570000000001z" />
    <glyph glyph-name="check-circle"
      unicode="&#xEA37;"
      horiz-adv-x="512" d="M256 0C114.615 0 0 114.615 0 256C0 397.385 114.615 512 256 512C397.385 512 512 397.385 512 256C512 114.615 397.385 0 256 0zM141.681 280.1570000000001C136.992 284.846 129.392 284.848 124.706 280.1620000000001L101.199 256.655C96.5127 251.969 96.5108 244.373 101.197 239.687L206.078 134.806C210.763 130.121 218.352 130.117 223.04 134.807L409.435 321.325C414.118 326.01 414.115 333.608 409.428 338.294L385.9220000000001 361.801C381.236 366.487 373.639 366.4890000000001 368.948 361.798L214.494 207.344L141.681 280.1570000000001z" />
    <glyph glyph-name="check-line"
      unicode="&#xEA38;"
      horiz-adv-x="512" d="M158.389 137.564L51.6271 244.165C39.7307 256.043 20.8186 256.043 8.92225 244.165C-2.97408 232.287 -2.97408 213.403 8.92225 201.525L136.732 73.909C148.628 62.03 167.845 62.03 179.741 73.909L503.078 396.451C514.974 408.329 514.974 427.2129 503.078 439.0913C491.181 450.9696 472.269 450.9696 460.373 439.0913L158.389 137.564z" />
    <glyph glyph-name="check"
      unicode="&#xEA39;"
      horiz-adv-x="512" d="M490.105 508.06163L506.653 493.4821C513.011 487.8806 513.808 478.2567 508.458 471.6859L210.75 106.06C204.758 98.702 195.774 94.431 186.285 94.431H172.366C162.364 94.431 152.955 99.173 147.006 107.213L3.09508 301.678C-1.87909 308.399 -0.744053 317.834 5.68232 323.184L24.4571 338.815C30.2193 343.612 38.562 343.69 44.4133 339.002L174.044 235.138L468.968 507.80819C474.907 513.29878 484.036 513.40824 490.105 508.06163z" />
    <glyph glyph-name="chevron-down"
      unicode="&#xEA3A;"
      horiz-adv-x="512" d="M0 354.927L256 96.056L512 354.927L451.66 415.9441L256 218.089L60.34 415.9441L0 354.927z" />
    <glyph glyph-name="chevron-left-w"
      unicode="&#xEA3B;"
      horiz-adv-x="512" d="M258.872 512L0 256L258.872 0L319.888 60.34L122.033 256L319.888 451.66L258.872 512zM445.053 512L186.182 256L445.053 0L506.07 60.34L308.215 256L506.07 451.66L445.053 512z" />
    <glyph glyph-name="chevron-left"
      unicode="&#xEA3C;"
      horiz-adv-x="512" d="M96 256L354.872 512L415.888 451.66L218.033 256L415.888 60.34L354.872 0L96 256z" />
    <glyph glyph-name="chevron-right-w"
      unicode="&#xEA3D;"
      horiz-adv-x="512" d="M61.0167 512L319.888 256L61.0167 0L0 60.34L197.855 256L0 451.66L61.0167 512zM247.199 512L506.07 256L247.199 0L186.182 60.34L384.037 256L186.182 451.66L247.199 512z" />
    <glyph glyph-name="chevron-right"
      unicode="&#xEA3E;"
      horiz-adv-x="512" d="M415.888 256L157.017 512L96 451.66L293.855 256L96 60.34L157.017 0L415.888 256z" />
    <glyph glyph-name="chevron-up"
      unicode="&#xEA3F;"
      horiz-adv-x="512" d="M0 157.072L256 415.9441L512 157.072L451.66 96.056L256 293.911L60.34 96.056L0 157.072z" />
    <glyph glyph-name="circle-o"
      unicode="&#xEA40;"
      horiz-adv-x="512" d="M0 256C0 397.385 114.615 512 256 512C397.385 512 512 397.385 512 256C512 114.615 397.385 0 256 0C114.615 0 0 114.615 0 256zM42.6665 256C42.6665 138.18 138.179 42.667 256 42.667C373.8210000000001 42.667 469.333 138.179 469.333 256C469.333 373.8210000000001 373.8210000000001 469.3335 256 469.3335C138.179 469.3335 42.6665 373.8210000000001 42.6665 256z" />
    <glyph glyph-name="circle"
      unicode="&#xEA41;"
      horiz-adv-x="512" d="M0 256C0 397.385 114.615 512 256 512C397.385 512 512 397.385 512 256C512 114.615 397.385 0 256 0C114.615 0 0 114.615 0 256z" />
    <glyph glyph-name="clip"
      unicode="&#xEA42;"
      horiz-adv-x="512" d="M459.035 285.134L244.627 70.536C203.424 29.297 136.678 29.297 95.4747 70.536C54.2713 111.776 54.2713 178.583 95.4747 219.823L328.526 453.0793C354.254 478.8307 396.017 478.8307 421.747 453.0793C447.474 427.3276 447.474 385.528 421.747 359.776L225.984 163.839C215.73 153.576 198.95 153.576 188.695 163.839C178.441 174.103 178.441 190.897 188.695 201.161L365.815 378.437L337.848 406.428L160.729 229.153C135 203.4 135 161.6 160.729 135.85C186.458 110.097 228.221 110.097 253.949 135.85L449.711 331.785C490.915 373.025 490.915 439.8301 449.711 481.0702C408.508 522.31 341.762 522.31 300.5590000000001 481.0702L67.5086 247.812C10.8305 191.085 10.8305 99.274 67.5086 42.547C124.187 -14.182 215.915 -14.182 272.594 42.547L487 257.142L459.035 285.134z" />
    <glyph glyph-name="clock"
      unicode="&#xEA43;"
      horiz-adv-x="512" d="M0 256C0 397.385 114.615 512 256 512C397.385 512 512 397.385 512 256C512 114.615 397.385 0 256 0C114.615 0 0 114.615 0 256zM39.3846 256C39.3846 136.367 136.367 39.385 256 39.385C375.633 39.385 472.615 136.367 472.615 256C472.615 375.6330000000001 375.633 472.6154 256 472.6154C136.367 472.6154 39.3846 375.6330000000001 39.3846 256zM253.67 219.501H370.268C382.784 219.501 392.938 229.656 392.938 242.175C392.938 254.691 382.784 264.846 370.268 264.846H276.34V381.326C276.34 393.8450000000001 266.19 404 253.67 404C241.151 404 231 393.8450000000001 231 381.326V242.175C231 229.656 241.151 219.501 253.67 219.501z" />
    <glyph glyph-name="coconala-brands"
      unicode="&#xEA44;"
      horiz-adv-x="512" d="M471.315 382.325C495.25 423.4278 480.889 475.7152 439.778 499.482C398.668 523.249 345.73 508.98883 321.514 468.1656C313.912 455.3034 309.688 430.6977 309.9700000000001 414.4803V276.631L429.9220000000001 345.416H430.204C444.566 353.526 463.712 369.463 471.315 382.325zM286.881 276.9120000000001V414.2006C286.599 429.2997000000001 289.415 449.7113 295.328 466.2084L117.369 364.15C134.545 360.795 153.974 353.246 166.927 345.416L286.881 276.9120000000001zM286.881 99.079V236.368L166.927 167.583C153.974 159.755 134.827 151.925 117.369 148.849L295.328 47.071C289.6960000000001 63.568 286.599 83.98 286.881 99.079zM482.86 154.442C471.315 167.863 454.983 180.445 441.75 187.716L322.078 256.5L441.75 325.285C454.983 332.554 471.315 345.416 482.86 358.558V154.442zM16 256.5C16 303.754 54.8581 342.3400000000001 102.445 342.3400000000001C117.65 342.3400000000001 141.022 333.6720000000001 155.1 325.564H155.382L275.054 256.5L155.1 187.716H154.819C140.74 179.327 117.369 170.939 102.164 170.939C54.8581 170.939 16 209.245 16 256.5zM321.796 44.835C345.73 4.011 398.668 -10.249 439.778 13.518C480.889 37.285 495.25 89.852 471.597 130.676C463.994 143.817 444.847 159.755 430.486 167.583H430.204L310.251 236.368V98.519C309.9700000000001 82.302 314.194 57.697 321.796 44.835z" />
    <glyph glyph-name="comment-check-o"
      unicode="&#xEA45;"
      horiz-adv-x="512" d="M139.57 101.329C161.585 84.835 191.16 73.265 237.259 70.766L266.549 28.943C217.838 24.223 159.917 36.851 123.315 57.918L18.0383 29.769C7.38841 26.922 -2.35132 36.669 0.504001 47.317L29.4108 155.113C11.0435 189.958 1.34293 229.07 1.34293 268.419C1.34293 402.156 106.542 509.30316 244.015 510.98402C365.313 512.467111 482.121 410.538 490.581 279.45L447.221 237.4C457.943 375.373 355.003 464.9352 244.015 465.4475C133.027 465.9598 47.7252 376.5850000000001 47.7252 268.419C47.7252 233.786 56.9222 199.736 74.2824 169.82L79.1327 161.473L59.6786 88.867L130.657 107.867L139.57 101.329zM292.105 144.747L335.29 83.687L470.411 217.62C476.02 223.179 485.07 223.15 490.643 217.555L507.825 200.303C513.417 194.689 513.388 185.601 507.76 180.023L328.161 1.993L248.775 114.134C244.199 120.599 245.738 129.551 252.211 134.116L272.156 148.181C278.615 152.736 287.542 151.199 292.105 144.747z" />
    <glyph glyph-name="comment-w"
      unicode="&#xEA46;"
      horiz-adv-x="512" d="M2.21998 84.259L28.0721 178.783C10.271 208.769 0 243.629 0 280.834C0 393.035 92.8453 484 207.376 484C321.884 484 414.742 393.035 414.742 280.834C414.742 168.636 321.884 77.656 207.376 77.656C166.648 77.647 128.711 89.181 96.6787 109.039L2.21998 84.259zM509.964 34.005L424.039 56.565C394.887 38.489 360.384 28 323.353 28C296.954 28 271.855 33.324 249.042 42.926C363.538 57.622 452.251 153.765 452.251 269.8930000000001C452.251 303.548 444.734 335.492 431.385 364.308C480.117 330.8830000000001 512 275.506 512 212.826C512 178.975 502.669 147.286 486.469 119.988L509.964 34.005z" />
    <glyph glyph-name="comment"
      unicode="&#xEA47;"
      horiz-adv-x="512" d="M512 291.333C512 385.5900000000001 397.385 462 256 462C114.615 462 0 385.5900000000001 0 291.333C0 205.877 94.2118 135.091 217.17 122.617C260.09 64.597 337.589 50.85 381.683 50.85C353.187 74.304 337.726 101.436 330.038 127.913C435.323 149.084 512 214.239 512 291.333z" />
    <glyph glyph-name="contract"
      unicode="&#xEA48;"
      horiz-adv-x="512" d="M284.444 284.444H474.074V341.333H382.104L512 473.5052L473.695 512L341.3330000000001 383.621V474.0741H284.444V284.444zM227.556 227.555L37.9259 227.556V170.667H129.896L-0.0000305176 38.495L38.3052 0L170.667 128.379V37.926H227.556V227.555z" />
    <glyph glyph-name="copy-o"
      unicode="&#xEA49;"
      horiz-adv-x="512" d="M72 420H51.28C33.45 420 27 418.14 20.46 414.66C14.0188 411.249 8.7511 405.981 5.34 399.54C1.86 393 0 386.55 0 368.7200000000001V51.28C0 33.45 1.86 26.98 5.34 20.46C8.7541 14.021 14.021 8.754 20.46 5.34C26.98 1.86 33.46 0 51.28 0H368.7200000000001C386.55 0 393.02 1.86 399.54 5.34C405.977 8.757 411.243 14.023 414.6600000000001 20.46C418.14 26.98 420 33.46 420 51.28V72H380V40H40V380H72V420zM460.72 512H143.28C125.45 512 119 510.14 112.46 506.66C106.019 503.2489 100.751 497.9812 97.34 491.54C93.86 485 92 478.55 92 460.72V143.28C92 125.45 93.86 118.98 97.34 112.46C100.754 106.021 106.021 100.754 112.46 97.34C118.98 93.86 125.46 92 143.28 92H460.72C478.55 92 485.02 93.86 491.54 97.34C497.977 100.757 503.243 106.023 506.66 112.46C510.14 118.98 512 125.46 512 143.28V460.72C512 478.55 510.14 485.02 506.66 491.54C503.246 497.979 497.979 503.2459 491.54 506.66C485 510.14 478.55 512 460.72 512zM472 472V132H132V472H472z" />
    <glyph glyph-name="coupon"
      unicode="&#xEA4A;"
      horiz-adv-x="512" d="M0 411H512V100H0V411zM493.7 228.129V392.8H18.2V118.5H384.0710000000001L493.7 228.129zM105.857 289.5710000000001C112.143 283.286 115.286 274.5710000000001 115.286 263.429H103.286C103.571 271.429 101.571 277.5710000000001 97.2857 281.857C94.7143 284.429 92 285.714 89.1429 285.714C85.4286 285.714 82.1429 284.286 79.2857 281.429C74.1428 276.286 71.5714 266.572 71.5714 252.286C71.5714 237.428 74.1428 227.429 79.2857 222.286C82.1429 219.429 85.4286 218 89.1429 218C92 218 94.7143 219.286 97.2857 221.857C101.571 226.143 103.714 233 103.714 242.429H115.714C115.429 229.8570000000001 112.143 220.429 105.857 214.143C101 209.286 95.4286 206.857 89.1429 206.857C82.2857 206.857 76.4286 209.286 71.5714 214.143C63.5714 222.143 59.5714 234.8570000000001 59.5714 252.286C59.5714 269.1430000000001 63.5714 281.5710000000001 71.5714 289.5710000000001C76.4286 294.429 82.2857 296.857 89.1429 296.857C95.4286 296.857 101 294.429 105.857 289.5710000000001zM174.857 288.286C182 281.1430000000001 185.571 269 185.571 251.8570000000001C185.571 234.714 182 222.571 174.857 215.429C169.429 210 163 207.286 155.571 207.286C148.143 207.286 141.714 210 136.286 215.429C129.143 222.571 125.571 234.714 125.571 251.8570000000001C125.571 269 129.143 281.1430000000001 136.286 288.286C141.714 293.714 148.143 296.429 155.571 296.429C163 296.429 169.429 293.714 174.857 288.286zM144.857 280.5710000000001C140 275.714 137.571 266.1430000000001 137.571 251.8570000000001C137.571 237.5710000000001 140 228 144.857 223.143C148 220 151.571 218.429 155.571 218.429C159.571 218.429 163.143 220 166.286 223.143C171.143 228 173.571 237.5710000000001 173.571 251.8570000000001C173.571 266.1430000000001 171.143 275.714 166.286 280.5710000000001C163.143 283.714 159.571 285.286 155.571 285.286C151.571 285.286 148 283.714 144.857 280.5710000000001zM237.857 295.5710000000001H249V234.286C249 225.143 246.857 218.429 242.571 214.143C238 209.571 231.429 207.286 222.857 207.286C214.571 207.286 208.143 209.571 203.571 214.143C199.286 218.429 197.143 225.143 197.143 234.286V295.5710000000001H208.286V235.143C208.286 229.429 209.429 225.429 211.714 223.143C214.286 220.571 218 219.286 222.857 219.286C228 219.286 231.857 220.571 234.429 223.143C236.714 225.429 237.857 229.429 237.857 235.143V295.5710000000001zM273.429 244.5710000000001V208.143H262.286V295.5710000000001H289.714C296.5710000000001 295.5710000000001 302.143 293.429 306.429 289.1430000000001C310.429 285.1430000000001 312.429 278.857 312.429 270.286C312.429 261.714 310.429 255.429 306.429 251.429C301.8570000000001 246.8570000000001 296.286 244.5710000000001 289.714 244.5710000000001H273.429zM273.429 285.286V254.8570000000001H287.143C290.8570000000001 254.8570000000001 294 256.1430000000001 296.5710000000001 258.714C299.143 261.286 300.429 265 300.429 269.857C300.429 275 299.143 278.857 296.5710000000001 281.429C294 284 290.8570000000001 285.286 287.143 285.286H273.429zM371.5710000000001 288.286C378.714 281.1430000000001 382.286 269 382.286 251.8570000000001C382.286 234.714 378.714 222.571 371.5710000000001 215.429C366.143 210 359.714 207.286 352.286 207.286C344.8570000000001 207.286 338.429 210 333 215.429C325.8570000000001 222.571 322.286 234.714 322.286 251.8570000000001C322.286 269 325.8570000000001 281.1430000000001 333 288.286C338.429 293.714 344.8570000000001 296.429 352.286 296.429C359.714 296.429 366.143 293.714 371.5710000000001 288.286zM341.5710000000001 280.5710000000001C336.714 275.714 334.286 266.1430000000001 334.286 251.8570000000001C334.286 237.5710000000001 336.714 228 341.5710000000001 223.143C344.714 220 348.286 218.429 352.286 218.429C356.286 218.429 359.8570000000001 220 363 223.143C367.8570000000001 228 370.286 237.5710000000001 370.286 251.8570000000001C370.286 266.1430000000001 367.8570000000001 275.714 363 280.5710000000001C359.8570000000001 283.714 356.286 285.286 352.286 285.286C348.286 285.286 344.714 283.714 341.5710000000001 280.5710000000001zM434.5710000000001 295.5710000000001H445.714V208.143H434.5710000000001L405 270.714V208.143H393.8570000000001V295.5710000000001H405L434.5710000000001 233V295.5710000000001z" />
    <glyph glyph-name="cross-bold"
      unicode="&#xEA4B;"
      horiz-adv-x="512" d="M493.542 493.5508C468.943 518.14975 429.066 518.14975 404.464 493.5508L256.001 345.0850000000001L107.539 493.5499C82.9408 518.14891 43.0576 518.14891 18.459 493.5499C-6.13957 468.9501 -6.13957 429.0671 18.459 404.468L166.921 256.003L18.4489 107.529C-6.14965 82.927 -6.14965 43.05 18.4489 18.45C43.0484 -6.15 82.9307 -6.15 107.529 18.45L256.001 166.921L404.473 18.45C429.075 -6.15 468.959 -6.15 493.55 18.45C518.15 43.05 518.15 82.927 493.55 107.528L345.082 256.003L493.542 404.469C518.141 429.068 518.141 468.9509 493.542 493.5508z" />
    </font>
</defs>
</svg>
